The Rider (2017)

Posted By: Without
1080p (FullHD) / WEB-DL IMDb
The Rider (2017)

The Rider (2017)
HDRip | AVI | 720x304 | XviD@1586 kb/s | English AC3@384 kb/s | 6 channels | 1 h 38 min | 1.36 GB
WEB-DL 720p | MKV | 960x536 | AVC@4065 kb/s | English AC3@384 kb/s | 6 channels | 1 h 38 min | 3.06 GB
WEB-DL 1080p | MKV | 1912x800 | AVC@4574 kb/s | English AC3@384 kb/s | 6 channels | 1 h 38 min | 3.41 GB
Genre: Drama, Western

After suffering a near fatal head injury, a young cowboy undertakes a search for new identity and what it means to be a man in the heartland of America.

IMDB - 13 wins & 13 nominations.


General
The Rider 2017.HDRip.XviD.AC3-EVO.avi
Format : AVI
Format/Info : Audio Video Interleave
File size : 1.36 GiB
Duration : 1 h 38 min
Overall bit rate : 1 980 kb/s
Writing library : VirtualDub build 32593/release

Video
ID : 0
Format : MPEG-4 Visual
Format profile : Advanced Simple@L5
Format settings, BVOP : 2
Format settings, QPel : No
Format settings, GMC : No warppoints
Format settings, Matrix : Default (H.263)
Muxing mode : Packed bitstream
Codec ID : XVID
Codec ID/Hint : XviD
Duration : 1 h 38 min
Bit rate : 1 586 kb/s
Width : 720 pixels
Height : 304 pixels
Display aspect ratio : 2.35:1
Frame rate : 25.000 FPS
Color space : YUV
Chroma subsampling : 4:2:0
Bit depth : 8 bits
Scan type : Progressive
Compression mode : Lossy
Bits/(Pixel*Frame) : 0.290
Stream size : 1.09 GiB (80%)
Writing library : XviD 66

Audio
ID : 1
Format : AC-3
Format/Info : Audio Coding 3
Format settings, Endianness : Big
Codec ID : 2000
Duration : 1 h 38 min
Bit rate mode : Constant
Bit rate : 384 kb/s
Channel(s) : 6 channels
Channel positions : Front: L C R, Side: L R, LFE
Sampling rate : 48.0 kHz
Frame rate : 31.250 FPS (1536 SPF)
Bit depth : 16 bits
Compression mode : Lossy
Stream size : 271 MiB (19%)
Alignment : Aligned on interleaves
Interleave, duration : 40 ms (1.00 video frame)
Interleave, preload duration : 512 ms
Service kind : Complete Main

General
The Rider 2017 720p WEB-DL DD5 1 H264-CMRG.mkv
Format : Matroska
Format version : Version 4 / Version 2
File size : 3.07 GiB
Duration : 1 h 38 min
Overall bit rate : 4 451 kb/s
Encoded date : UTC 2018-07-04 21:01:00
Writing application : mkvmerge v21.0.0 ('Tardigrades Will Inherit The Earth') 64-bit
Writing library : libebml v1.3.5 + libmatroska v1.4.8

Video
ID : 1
Format : AVC
Format/Info : Advanced Video Codec
Format profile : Main@L3.1
Format settings, CABAC : No
Format settings, RefFrames : 2 frames
Codec ID : V_MPEG4/ISO/AVC
Duration : 1 h 38 min
Bit rate : 4 065 kb/s
Width : 960 pixels
Height : 536 pixels
Display aspect ratio : 2.40:1
Frame rate mode : Constant
Frame rate : 25.000 FPS
Color space : YUV
Chroma subsampling : 4:2:0
Bit depth : 8 bits
Scan type : Progressive
Bits/(Pixel*Frame) : 0.316
Stream size : 2.80 GiB (91%)
Language : English
Default : Yes
Forced : No
Color range : Limited
Color primaries : BT.709
Transfer characteristics : BT.709
Matrix coefficients : BT.709

Audio
ID : 2
Format : AC-3
Format/Info : Audio Coding 3
Format settings, Endianness : Big
Codec ID : A_AC3
Duration : 1 h 38 min
Bit rate mode : Constant
Bit rate : 384 kb/s
Channel(s) : 6 channels
Channel positions : Front: L C R, Side: L R, LFE
Sampling rate : 48.0 kHz
Frame rate : 31.250 FPS (1536 SPF)
Bit depth : 16 bits
Compression mode : Lossy
Delay relative to video : -40 ms
Stream size : 271 MiB (9%)
Language : English
Service kind : Complete Main
Default : Yes
Forced : No

Menu
00:00:00.000 : en:1
00:01:38.000 : en:2
00:14:16.000 : en:3
00:26:01.000 : en:4
00:39:06.000 : en:5
00:49:39.000 : en:6
00:59:33.000 : en:7
01:12:14.000 : en:8
01:24:39.000 : en:9
01:35:32.000 : en:10

General
The Rider 2017 1080p WEB-DL DD5 1 H264-CMRG.mkv
Format : Matroska
Format version : Version 4 / Version 2
File size : 3.42 GiB
Duration : 1 h 38 min
Overall bit rate : 4 960 kb/s
Encoded date : UTC 2018-07-04 20:23:04
Writing application : mkvmerge v21.0.0 ('Tardigrades Will Inherit The Earth') 64-bit
Writing library : libebml v1.3.5 + libmatroska v1.4.8

Video
ID : 1
Format : AVC
Format/Info : Advanced Video Codec
Format profile : High@L4
Format settings, CABAC : Yes
Format settings, RefFrames : 5 frames
Codec ID : V_MPEG4/ISO/AVC
Duration : 1 h 38 min
Bit rate : 4 574 kb/s
Width : 1 912 pixels
Height : 800 pixels
Display aspect ratio : 2.40:1
Frame rate mode : Constant
Frame rate : 25.000 FPS
Color space : YUV
Chroma subsampling : 4:2:0
Bit depth : 8 bits
Scan type : Progressive
Bits/(Pixel*Frame) : 0.120
Stream size : 3.15 GiB (92%)
Language : English
Default : Yes
Forced : No
Color range : Limited
Color primaries : BT.709
Transfer characteristics : BT.709
Matrix coefficients : BT.709

Audio
ID : 2
Format : AC-3
Format/Info : Audio Coding 3
Format settings, Endianness : Big
Codec ID : A_AC3
Duration : 1 h 38 min
Bit rate mode : Constant
Bit rate : 384 kb/s
Channel(s) : 6 channels
Channel positions : Front: L C R, Side: L R, LFE
Sampling rate : 48.0 kHz
Frame rate : 31.250 FPS (1536 SPF)
Bit depth : 16 bits
Compression mode : Lossy
Delay relative to video : -40 ms
Stream size : 271 MiB (8%)
Language : English
Service kind : Complete Main
Default : Yes
Forced : No

Menu
00:00:00.000 : en:1
00:01:38.000 : en:2
00:14:16.000 : en:3
00:26:01.000 : en:4
00:39:06.000 : en:5
00:49:39.000 : en:6
00:59:33.000 : en:7
01:12:14.000 : en:8
01:24:39.000 : en:9
01:35:32.000 : en:10


HDRip Screenshots

The Rider (2017)

The Rider (2017)

The Rider (2017)


WEB-DL 720p Screenshots

The Rider (2017)

The Rider (2017)

The Rider (2017)


WEB-DL 1080p Screenshots

The Rider (2017)

The Rider (2017)

The Rider (2017)


Come Visit My Blog (•‿•)
SitemapPencil Sketch Color v2.1.2 APK modded apk | วันที่10 มิถุนายน2561 | Elvis Presley - King of Rock n Roll (2018) Mp3 320kbps Songs [PMEDIA] KeyKey 2.7.5 | Cristian Solimeno | Boyz II Men