Recall (2018)

Posted By: Without
720p (HD) / WEB-DL IMDb
Recall (2018)

Recall (2018)
HDRip | AVI | 720x304 | XviD@1929 kb/s | English AC3@384 kb/s | 6 channels | 1 h 12 min | 1.17 GB
WEB-DL 720p | MKV | 1280x536 | AVC@4005 kb/s | English AC3@384 kb/s | 6 channels | 1 h 12 min | 2.27 GB
Genre: Crime, Drama, Thriller

When given the chance at a fresh-start, a grieving young man and his coked-up stepbrother, must confront a local mafia kingpin and perhaps something even more dangerous - their past.



General
Recall.2018.HDRip.XviD.AC3-EVO.avi
Format : AVI
Format/Info : Audio Video Interleave
File size : 1.18 GiB
Duration : 1 h 12 min
Overall bit rate : 2 322 kb/s
Writing library : VirtualDub build 32593/release

Video
ID : 0
Format : MPEG-4 Visual
Format profile : Advanced Simple@L5
Format settings, BVOP : 2
Format settings, QPel : No
Format settings, GMC : No warppoints
Format settings, Matrix : Default (H.263)
Muxing mode : Packed bitstream
Codec ID : XVID
Codec ID/Hint : XviD
Duration : 1 h 12 min
Bit rate : 1 929 kb/s
Width : 720 pixels
Height : 304 pixels
Display aspect ratio : 2.35:1
Frame rate : 23.976 (24000/1001) FPS
Color space : YUV
Chroma subsampling : 4:2:0
Bit depth : 8 bits
Scan type : Progressive
Compression mode : Lossy
Bits/(Pixel*Frame) : 0.368
Stream size : 1 003 MiB (83%)
Writing library : XviD 66

Audio
ID : 1
Format : AC-3
Format/Info : Audio Coding 3
Format settings, Endianness : Big
Codec ID : 2000
Duration : 1 h 12 min
Bit rate mode : Constant
Bit rate : 384 kb/s
Channel(s) : 6 channels
Channel positions : Front: L C R, Side: L R, LFE
Sampling rate : 48.0 kHz
Frame rate : 31.250 FPS (1536 SPF)
Bit depth : 16 bits
Compression mode : Lossy
Stream size : 200 MiB (17%)
Alignment : Aligned on interleaves
Interleave, duration : 42 ms (1.00 video frame)
Interleave, preload duration : 512 ms
Service kind : Complete Main

General
Recall.2018.720p.WEB-DL.H264.AC3-EVO.mkv
Format : Matroska
Format version : Version 4 / Version 2
File size : 2.27 GiB
Duration : 1 h 12 min
Overall bit rate : 4 478 kb/s
Movie name : EVO
Encoded date : UTC 2018-07-04 13:05:01
Writing application : mkvmerge v6.7.0 ('Back to the Ground') 64bit built on Jan 8 2014 15:10:52
Writing library : libebml v1.3.0 + libmatroska v1.4.1

Video
ID : 2
Format : AVC
Format/Info : Advanced Video Codec
Format profile : Main@L3.1
Format settings, CABAC : No
Format settings, RefFrames : 2 frames
Codec ID : V_MPEG4/ISO/AVC
Duration : 1 h 12 min
Bit rate : 4 005 kb/s
Width : 1 280 pixels
Height : 536 pixels
Display aspect ratio : 2.40:1
Frame rate mode : Constant
Frame rate : 23.976 FPS
Color space : YUV
Chroma subsampling : 4:2:0
Bit depth : 8 bits
Scan type : Progressive
Bits/(Pixel*Frame) : 0.243
Stream size : 2.03 GiB (89%)
Language : English
Default : Yes
Forced : No
Color range : Limited
Color primaries : BT.709
Transfer characteristics : BT.709
Matrix coefficients : BT.709

Audio
ID : 1
Format : AC-3
Format/Info : Audio Coding 3
Format settings, Endianness : Big
Codec ID : A_AC3
Duration : 1 h 12 min
Bit rate mode : Constant
Bit rate : 384 kb/s
Channel(s) : 6 channels
Channel positions : Front: L C R, Side: L R, LFE
Sampling rate : 48.0 kHz
Frame rate : 31.250 FPS (1536 SPF)
Bit depth : 16 bits
Compression mode : Lossy
Stream size : 200 MiB (9%)
Language : English
Service kind : Complete Main
Default : Yes
Forced : No

Menu
00:00:00.000 : en:1
00:14:29.327 : en:2
00:25:15.014 : en:3
00:37:03.137 : en:4
00:47:36.812 : en:5
00:58:41.560 : en:6
01:10:29.516 : en:7


HDRip Screenshots

Recall (2018)

Recall (2018)

Recall (2018)


WEB-DL 720p Screenshots

Recall (2018)

Recall (2018)

Recall (2018)


Come Visit My Blog (•‿•)
SitemapChap 566 | The Great Train Robbery Silent Film Analysis | Descargar APK Crazy Coffee Cat | Colossal (2016) 720p h264 ita eng sub ita eng-MIRCrew | The Enchanted World of Brambly Hedge (8)