Ready Player One (2018)

Posted By: JohnSmith
720p (HD) / BDRip IMDb
Ready Player One (2018)

Ready Player One (2018)
BDRip | MKV / AVC@1950 kb/s | 848x356 | 2h 19mn | 2.53 GB
Italian (dubbed): AC3, 640 kb/s (6 ch) | Subtitles: Italian (forced, full)
BDRip 720p | MKV / AVC@4610 kb/s | 1280x534 | 2h 19mn | 5.26 GB
Italian (dubbed): DTS, 768 kb/s (6 ch) | Subtitles: Italian (forced, full)
Genre: Action | Adventure | Sci-Fi

In un futuro prossimo, un giovane emarginato di nome Wade Watts fugge dalla sue fatiche quotidiane accedendo a un gioco per computer multigiocatore chiamato 'Oasis'. Morendo, il fondatore milionario del gioco lascia la sua fortuna come premio di una caccia al tesoro all'interno dell'Oasis. Watts prende parte alla competizione dove si ritroverà a doversi confrontare - realmente e virtualmente - con nemici disposti a tutto pur di mettere le mani sulla fortuna.




General
Unique ID : 247163019551615696463590444028422038573 (0xB9F1DDB573496D6A813FF8BE0DB4A42D)
Complete name : A:\Ready.Player.One.2018.iTA.BDRip.480p.mkv
Format : Matroska
Format version : Version 4 / Version 2
File size : 2.53 GiB
Duration : 2 h 19 min
Overall bit rate : 2 593 kb/s
Encoded date : UTC 2018-07-04 16:36:21
Writing application : mkvmerge v8.3.0 ('Over the Horizon') 64bit
Writing library : libebml v1.3.1 + libmatroska v1.4.2

Video
ID : 1
Format : AVC
Format/Info : Advanced Video Codec
Format profile : High@L4.1
Format settings, CABAC : Yes
Format settings, ReFrames : 5 frames
Codec ID : V_MPEG4/ISO/AVC
Duration : 2 h 19 min
Bit rate : 1 951 kb/s
Width : 848 pixels
Height : 356 pixels
Display aspect ratio : 2.40:1
Frame rate mode : Constant
Frame rate : 23.976 (24000/1001) FPS
Color space : YUV
Chroma subsampling : 4:2:0
Bit depth : 8 bits
Scan type : Progressive
Bits/(Pixel*Frame) : 0.270
Stream size : 1.91 GiB (75%)
Title : Ready Player One / (2018) .mkv BDRip 480p AC3 iTA ENG x264 - DDN
Writing library : x264 core 155 r2901 7d0ff22
Encoding settings : cabac=1 / ref=5 / deblock=1:-2:-2 / analyse=0x3:0x113 / me=hex / subme=7 / psy=1 / psy_rd=1.05:0.15 / mixed_ref=1 / me_range=16 / chroma_me=1 / trellis=1 / 8x8dct=1 / cqm=0 / deadzone=21,11 / fast_pskip=1 / chroma_qp_offset=-3 / threads=11 / lookahead_threads=1 / sliced_threads=0 / nr=0 / decimate=1 / interlaced=0 / bluray_compat=0 / constrained_intra=0 / bframes=3 / b_pyramid=2 / b_adapt=1 / b_bias=0 / direct=1 / weightb=1 / open_gop=0 / weightp=2 / keyint=240 / keyint_min=23 / scenecut=40 / intra_refresh=0 / rc_lookahead=40 / rc=2pass / mbtree=1 / bitrate=1951 / ratetol=1.0 / qcomp=0.65 / qpmin=0 / qpmax=69 / qpstep=4 / cplxblur=20.0 / qblur=0.5 / vbv_maxrate=50000 / vbv_bufsize=50000 / nal_hrd=none / filler=0 / ip_ratio=1.40 / aq=1:1.00
Language : English
Default : Yes
Forced : No

Audio
ID : 2
Format : AC-3
Format/Info : Audio Coding 3
Format settings, Endianness : Big
Codec ID : A_AC3
Duration : 2 h 19 min
Bit rate mode : Constant
Bit rate : 640 kb/s
Channel(s) : 6 channels
Channel positions : Front: L C R, Side: L R, LFE
Sampling rate : 48.0 kHz
Frame rate : 31.250 FPS (1536 spf)
Bit depth : 16 bits
Compression mode : Lossy
Stream size : 641 MiB (25%)
Title : AC3 iTA
Language : Italian
Service kind : Complete Main
Default : Yes
Forced : No

Text #1
ID : 3
Format : UTF-8
Codec ID : S_TEXT/UTF8
Codec ID/Info : UTF-8 Plain Text
Duration : 2 h 18 min
Bit rate : 1 b/s
Count of elements : 50
Stream size : 1.26 KiB (0%)
Title : FORCED iTA
Language : Italian
Default : Yes
Forced : No

Text #2
ID : 4
Format : UTF-8
Codec ID : S_TEXT/UTF8
Codec ID/Info : UTF-8 Plain Text
Duration : 2 h 19 min
Bit rate : 54 b/s
Count of elements : 1886
Stream size : 55.8 KiB (0%)
Title : NON UDENTI iTA
Language : Italian
Default : No
Forced : No





General
Unique ID : 240262424585653286046408630283719540603 (0xB4C0DC1BFCDC4D359BC4D2F29949FF7B)
Complete name : A:\Ready.Player.One.2018.iTA.Bluray.720p.x264-CYBER.mkv
Format : Matroska
Format version : Version 4 / Version 2
File size : 5.26 GiB
Duration : 2 h 19 min
Overall bit rate : 5 381 kb/s
Encoded date : UTC 2018-07-04 16:35:18
Writing application : mkvmerge v8.3.0 ('Over the Horizon') 64bit
Writing library : libebml v1.3.1 + libmatroska v1.4.2
Attachments : Ready.Player.One.2018.1080p.BluRay.REMUX-EPSiLON.rar

Video
ID : 1
Format : AVC
Format/Info : Advanced Video Codec
Format profile : High@L4.1
Format settings, CABAC : Yes
Format settings, ReFrames : 5 frames
Codec ID : V_MPEG4/ISO/AVC
Duration : 2 h 19 min
Bit rate : 4 610 kb/s
Width : 1 280 pixels
Height : 534 pixels
Display aspect ratio : 2.40:1
Original display aspect rat : 2.40:1
Frame rate mode : Constant
Frame rate : 23.976 (24000/1001) FPS
Color space : YUV
Chroma subsampling : 4:2:0
Bit depth : 8 bits
Scan type : Progressive
Bits/(Pixel*Frame) : 0.281
Stream size : 4.51 GiB (86%)
Writing library : x264 core 155 r2901 7d0ff22
Language : English
Default : Yes
Forced : No

Audio
ID : 2
Format : DTS
Format/Info : Digital Theater Systems
Mode : 16
Format settings, Endianness : Big
Codec ID : A_DTS
Duration : 2 h 19 min
Bit rate mode : Constant
Bit rate : 768 kb/s
Channel(s) : 6 channels
Channel positions : Front: L C R, Side: L R, LFE
Sampling rate : 48.0 kHz
Frame rate : 93.750 FPS (512 spf)
Bit depth : 16 bits
Compression mode : Lossy
Stream size : 769 MiB (14%)
Language : Italian
Default : Yes
Forced : No

Text #1
ID : 3
Format : UTF-8
Codec ID : S_TEXT/UTF8
Codec ID/Info : UTF-8 Plain Text
Duration : 2 h 18 min
Bit rate : 1 b/s
Count of elements : 50
Stream size : 1.26 KiB (0%)
Title : FORCED
Language : Italian
Default : Yes
Forced : No

Text #2
ID : 4
Format : UTF-8
Codec ID : S_TEXT/UTF8
Codec ID/Info : UTF-8 Plain Text
Duration : 2 h 19 min
Bit rate : 57 b/s
Count of elements : 1889
Stream size : 58.3 KiB (0%)
Title : REGOLARI
Language : Italian
Default : No
Forced : No




Screenshots BDRip

Ready Player One (2018)

Ready Player One (2018)

Ready Player One (2018)


Screenshots BDRip 720p

Ready Player One (2018)

Ready Player One (2018)

Ready Player One (2018)
Sitemap› share-online.biz online | Matthew Gray Gubler | 2012 – Das Jahr Null Scariest Night of Your Life | Happiness for Sale (Movie) | Watch movie