NHK Kabuki Kool - The Battles of Coxinga (2018)

Posted By: notbanned
720p (HD) / HDTV
NHK Kabuki Kool - The Battles of Coxinga (2018)

NHK Kabuki Kool - The Battles of Coxinga (2018)
HDTV | 1280x720 | .MKV/AVC @ 2746 Kbps | 27 min 59 s | 563 MiB
Audio: English AAC 64 kbps, 2 channels | Subs: None
Genre: Documentary

Kataoka Ainosuke explores "The Battles of Coxinga" by Chikamatsu Monzemon. It's an epic tale with a Sino-Japanese hero taking up arms in China for the family his father once served.

General
Unique ID : 203908937239637727047011670147320498082 (0x99676ECD042869420E23F989523FC7A2)
Complete name : NHK.Kabuki.Kool.2018.The.Battles.of.Coxinga.720p.mkv
Format : Matroska
Format version : Version 4 / Version 2
File size : 563 MiB
Duration : 27 min 59 s
Overall bit rate : 2 811 kb/s

Video
ID : 1
Format : AVC
Format/Info : Advanced Video Codec
Format profile : High@L3.1
Format settings, CABAC : Yes
Format settings, ReFrames : 4 frames
Codec ID : V_MPEG4/ISO/AVC
Duration : 27 min 59 s
Bit rate : 2 746 kb/s
Width : 1 280 pixels
Height : 720 pixels
Display aspect ratio : 16:9
Frame rate mode : Constant
Frame rate : 25.000 FPS
Color space : YUV
Chroma subsampling : 4:2:0
Bit depth : 8 bits
Scan type : Progressive
Bits/(Pixel*Frame) : 0.119
Stream size : 550 MiB (98%)
Encoding settings : cabac=1 / ref=4 / deblock=1:0:0 / analyse=0x3:0x113 / me=umh / subme=9 / psy=1 / psy_rd=1.00:0.00 / mixed_ref=1 / me_range=24 / chroma_me=1 / trellis=1 / 8x8dct=1 / cqm=0 / deadzone=21,11 / fast_pskip=0 / chroma_qp_offset=-2 / threads=3 / lookahead_threads=1 / sliced_threads=0 / nr=0 / decimate=1 / interlaced=0 / bluray_compat=0 / constrained_intra=0 / bframes=6 / b_pyramid=2 / b_adapt=2 / b_bias=0 / direct=1 / weightb=1 / open_gop=0 / weightp=2 / keyint=250 / keyint_min=25 / scenecut=40 / intra_refresh=0 / rc_lookahead=40 / rc=crf / mbtree=1 / crf=20.0 / qcomp=0.60 / qpmin=0 / qpmax=69 / qpstep=4 / ip_ratio=1.40 / aq=1:1.00
Language : English
Default : Yes
Forced : No
Color range : Limited
Color primaries : BT.709
Transfer characteristics : BT.709
Matrix coefficients : BT.709

Audio
ID : 2
Format : AAC
Format/Info : Advanced Audio Codec
Format profile : HE-AAC / LC
Codec ID : A_AAC
Duration : 27 min 59 s
Bit rate : 64.0 kb/s
Channel(s) : 2 channels
Channel positions : Front: L R
Sampling rate : 48.0 kHz / 24.0 kHz
Frame rate : 23.438 FPS (1024 spf)
Compression mode : Lossy
Delay relative to video : 43 ms
Stream size : 12.8 MiB (2%)
Language : English
Default : Yes
Forced : No


Screenshots:

NHK Kabuki Kool - The Battles of Coxinga (2018)

NHK Kabuki Kool - The Battles of Coxinga (2018)

NHK Kabuki Kool - The Battles of Coxinga (2018)

NHK Kabuki Kool - The Battles of Coxinga (2018)

SitemapEyeshield 21 | NORDENS STÖRSTA LOGISTIK- OCH PLANERINGSKONFERENS | Running Man Episode 51 1x22 SuperCampeones 2018 | The Beginning After The End | Shortcut To Happiness VF