NHK - Medical Frontiers: Restoring Speech (2018)

Posted By: notbanned
1080p (FullHD) / HDTV
NHK - Medical Frontiers: Restoring Speech (2018)

NHK - Medical Frontiers: Restoring Speech (2018)
HDTV | 1916x1080 | .MKV/AVC @ 4833 Kbps | 27 min 59 s | 1.04 GiB
Audio: English AC3 384 kbps, 2 channels | Subs: None
Genre: Documentary

Some people lose the ability to speak following surgery for cancer of the mouth or throat. With the help of technologies developed in Japan, they can communicate again using their own voice. One device uses recordings of a patient's voice before surgery to produce speech. And patients who have had part of their tongue removed can learn to speak again using an artificial tongue. We'll see how these technologies improve quality of life, and share exercises for a healthy and beautiful voice.

General
Complete name : Medical.Frontiers.Restoring.Speech.1080p.mkv
Format : Matroska
Format version : Version 4 / Version 2
File size : 1.04 GiB
Duration : 27 min 59 s
Overall bit rate : 5 323 kb/s

Video
ID : 1
Format : AVC
Format/Info : Advanced Video Codec
Format profile : High@L4.2
Format settings, CABAC : Yes
Format settings, ReFrames : 4 frames
Codec ID : V_MPEG4/ISO/AVC
Duration : 27 min 59 s
Bit rate : 4 833 kb/s
Width : 1 916 pixels
Height : 1 080 pixels
Display aspect ratio : 16:9
Frame rate mode : Constant
Frame rate : 50.000 FPS
Color space : YUV
Chroma subsampling : 4:2:0
Bit depth : 8 bits
Scan type : Progressive
Bits/(Pixel*Frame) : 0.047
Stream size : 968 MiB (91%)
Writing library : x264 core 155 r2901 7d0ff22
Encoding settings : cabac=1 / ref=4 / deblock=1:0:0 / analyse=0x3:0x113 / me=hex / subme=8 / psy=1 / psy_rd=1.00:0.00 / mixed_ref=1 / me_range=16 / chroma_me=1 / trellis=2 / 8x8dct=1 / cqm=0 / deadzone=21,11 / fast_pskip=1 / chroma_qp_offset=-2 / threads=12 / lookahead_threads=2 / sliced_threads=0 / nr=0 / decimate=1 / interlaced=0 / bluray_compat=0 / constrained_intra=0 / bframes=3 / b_pyramid=2 / b_adapt=1 / b_bias=0 / direct=3 / weightb=1 / open_gop=0 / weightp=2 / keyint=250 / keyint_min=25 / scenecut=40 / intra_refresh=0 / rc_lookahead=50 / rc=crf / mbtree=1 / crf=20.0 / qcomp=0.60 / qpmin=0 / qpmax=69 / qpstep=4 / ip_ratio=1.40 / aq=1:1.00
Language : English
Default : Yes
Forced : No
Color range : Limited
Matrix coefficients : BT.709

Audio
ID : 2
Format : AC-3
Format/Info : Audio Coding 3
Format settings, Endianness : Big
Codec ID : A_AC3
Duration : 27 min 59 s
Bit rate mode : Constant
Bit rate : 384 kb/s
Channel(s) : 2 channels
Channel positions : Front: L R
Sampling rate : 48.0 kHz
Frame rate : 31.250 FPS (1536 spf)
Bit depth : 16 bits
Compression mode : Lossy
Stream size : 76.9 MiB (7%)
Language : English
Service kind : Complete Main
Default : Yes
Forced : No


Screenshots:

NHK - Medical Frontiers: Restoring Speech (2018)

NHK - Medical Frontiers: Restoring Speech (2018)

NHK - Medical Frontiers: Restoring Speech (2018)

NHK - Medical Frontiers: Restoring Speech (2018)

Sitemap磁力 详情 | Asia Argento | Mensaje privado Queen's Blade | + PLUS + | htv online apk