Isle of Dogs (2018)

Posted By: Without
1080p (FullHD) / BDRip IMDb
Isle of Dogs (2018)

Isle of Dogs (2018)
BDRip | MKV | 720x300 | AVC@566 kb/s | English AAC@132 kb/s
Subs: English | 2 channels | 1 h 41 min | 506 MB
BRRip | AVI | 720x304 | XviD@1505 kb/s | English AC3@448 kb/s
6 channels | 1 h 41 min | 1.38 GB
BDRip 720p | MKV | 1280x536 | AVC@4659 kb/s | English DTS@1509 kb/s
Subs: English | 6 channels | 1 h 41 min | 4.35 GB
BDRip 1080p | MKV | 1920x808 | AVC@9303 kb/s | English DTS@1509 kb/s
Subs: English | 6 channels | 1 h 41 min | 7.63 GB
Genre: Animation, Adventure, Comedy

Set in Japan, Isle of Dogs follows a boy's odyssey in search of his lost dog.



General
Isle.of.Dogs.2018.BDRip.x264-DRONES\Isle.of.Dogs.2018.BDRip.x264-DRONES.mkv
Format : Matroska
Format version : Version 4 / Version 2
File size : 507 MiB
Duration : 1 h 41 min
Overall bit rate : 701 kb/s
Encoded date : UTC 2018-07-04 16:24:43
Writing application : mkvmerge v24.0.0 ('Beyond The Pale') 64-bit
Writing library : libebml v1.3.6 + libmatroska v1.4.9

Video
ID : 1
Format : AVC
Format/Info : Advanced Video Codec
Format profile : High@L3.1
Format settings, CABAC : Yes
Format settings, RefFrames : 5 frames
Codec ID : V_MPEG4/ISO/AVC
Duration : 1 h 41 min
Bit rate : 566 kb/s
Width : 720 pixels
Height : 300 pixels
Display aspect ratio : 2.40:1
Frame rate mode : Constant
Frame rate : 23.976 (24000/1001) FPS
Color space : YUV
Chroma subsampling : 4:2:0
Bit depth : 8 bits
Scan type : Progressive
Bits/(Pixel*Frame) : 0.109
Stream size : 410 MiB (81%)
Writing library : x264 core 155 r2901 7d0ff22
Encoding settings : cabac=1 / ref=5 / deblock=1:-3:-3 / analyse=0x3:0x113 / me=umh / subme=8 / psy=1 / psy_rd=1.00:0.00 / mixed_ref=1 / me_range=16 / chroma_me=1 / trellis=2 / 8x8dct=1 / cqm=0 / deadzone=21,11 / fast_pskip=1 / chroma_qp_offset=-2 / threads=9 / lookahead_threads=1 / sliced_threads=0 / nr=0 / decimate=1 / interlaced=0 / bluray_compat=0 / constrained_intra=0 / bframes=3 / b_pyramid=2 / b_adapt=1 / b_bias=0 / direct=3 / weightb=1 / open_gop=0 / weightp=2 / keyint=240 / keyint_min=24 / scenecut=40 / intra_refresh=0 / rc_lookahead=50 / rc=crf / mbtree=1 / crf=19.0 / qcomp=0.60 / qpmin=0 / qpmax=69 / qpstep=4 / ip_ratio=1.40 / aq=1:1.00
Default : Yes
Forced : No
Color range : Limited
Matrix coefficients : BT.709

Audio
ID : 2
Format : AAC
Format/Info : Advanced Audio Codec
Format profile : LC
Codec ID : A_AAC
Duration : 1 h 41 min
Bit rate : 132 kb/s
Channel(s) : 2 channels
Channel positions : Front: L R
Sampling rate : 48.0 kHz
Frame rate : 46.875 FPS (1024 SPF)
Compression mode : Lossy
Delay relative to video : 9 ms
Stream size : 95.3 MiB (19%)
Language : English
Default : Yes
Forced : No

Text #1
ID : 3
Format : UTF-8
Codec ID : S_TEXT/UTF8
Codec ID/Info : UTF-8 Plain Text
Duration : 1 h 33 min
Bit rate : 56 b/s
Count of elements : 1203
Stream size : 38.8 KiB (0%)
Language : English
Default : No
Forced : No

Text #2
ID : 4
Format : UTF-8
Codec ID : S_TEXT/UTF8
Codec ID/Info : UTF-8 Plain Text
Duration : 1 h 35 min
Bit rate : 63 b/s
Count of elements : 1429
Stream size : 44.4 KiB (0%)
Title : SDH
Language : English
Default : No
Forced : No

Menu
00:00:00.000 : en:00:00:00.000
00:03:36.049 : en:00:03:36.049
00:07:53.181 : en:00:07:53.181
00:13:41.195 : en:00:13:41.195
00:16:39.373 : en:00:16:39.373
00:20:45.035 : en:00:20:45.035
00:26:04.312 : en:00:26:04.312
00:29:27.265 : en:00:29:27.265
00:35:58.573 : en:00:35:58.573
00:40:36.475 : en:00:40:36.475
00:44:46.433 : en:00:44:46.433
00:48:15.100 : en:00:48:15.100
00:52:07.499 : en:00:52:07.499
00:56:06.780 : en:00:56:06.780
00:59:07.085 : en:00:59:07.085
01:03:17.710 : en:01:03:17.710
01:08:45.079 : en:01:08:45.079
01:14:03.230 : en:01:14:03.230
01:16:34.965 : en:01:16:34.965
01:20:46.925 : en:01:20:46.925
01:23:36.219 : en:01:23:36.219
01:30:09.737 : en:01:30:09.737
01:33:02.493 : en:01:33:02.493
01:35:41.235 : en:01:35:41.235

General
Isle.of.Dogs.2018.BRRip.XviD.AC3-EVO.avi
Format : AVI
Format/Info : Audio Video Interleave
File size : 1.39 GiB
Duration : 1 h 41 min
Overall bit rate : 1 963 kb/s
Writing library : VirtualDub build 32593/release

Video
ID : 0
Format : MPEG-4 Visual
Format profile : Advanced Simple@L5
Format settings, BVOP : 2
Format settings, QPel : No
Format settings, GMC : No warppoints
Format settings, Matrix : Default (H.263)
Muxing mode : Packed bitstream
Codec ID : XVID
Codec ID/Hint : XviD
Duration : 1 h 41 min
Bit rate : 1 505 kb/s
Width : 720 pixels
Height : 304 pixels
Display aspect ratio : 2.35:1
Frame rate : 23.976 (24000/1001) FPS
Color space : YUV
Chroma subsampling : 4:2:0
Bit depth : 8 bits
Scan type : Progressive
Compression mode : Lossy
Bits/(Pixel*Frame) : 0.287
Stream size : 1.06 GiB (77%)
Writing library : XviD 66

Audio
ID : 1
Format : AC-3
Format/Info : Audio Coding 3
Format settings, Endianness : Big
Codec ID : 2000
Duration : 1 h 41 min
Bit rate mode : Constant
Bit rate : 448 kb/s
Channel(s) : 6 channels
Channel positions : Front: L C R, Side: L R, LFE
Sampling rate : 48.0 kHz
Frame rate : 31.250 FPS (1536 SPF)
Bit depth : 16 bits
Compression mode : Lossy
Stream size : 324 MiB (23%)
Alignment : Aligned on interleaves
Interleave, duration : 42 ms (1.00 video frame)
Interleave, preload duration : 512 ms
Service kind : Complete Main

General
Isle.of.Dogs.2018.720p.BluRay.x264-DRONES.mkv
Format : Matroska
Format version : Version 4 / Version 2
File size : 4.36 GiB
Duration : 1 h 41 min
Overall bit rate : 6 166 kb/s
Encoded date : UTC 2018-07-04 16:24:27
Writing application : mkvmerge v24.0.0 ('Beyond The Pale') 64-bit
Writing library : libebml v1.3.6 + libmatroska v1.4.9

Video
ID : 1
Format : AVC
Format/Info : Advanced Video Codec
Format profile : High@L4.1
Format settings, CABAC : Yes
Format settings, RefFrames : 5 frames
Codec ID : V_MPEG4/ISO/AVC
Duration : 1 h 41 min
Bit rate : 4 659 kb/s
Width : 1 280 pixels
Height : 536 pixels
Display aspect ratio : 2.40:1
Frame rate mode : Constant
Frame rate : 23.976 (24000/1001) FPS
Color space : YUV
Chroma subsampling : 4:2:0
Bit depth : 8 bits
Scan type : Progressive
Bits/(Pixel*Frame) : 0.283
Stream size : 3.29 GiB (75%)
Writing library : x264 core 155 r2901 7d0ff22
Encoding settings : cabac=1 / ref=5 / deblock=1:-3:-3 / analyse=0x3:0x113 / me=umh / subme=8 / psy=1 / psy_rd=1.00:0.00 / mixed_ref=1 / me_range=16 / chroma_me=1 / trellis=1 / 8x8dct=1 / cqm=0 / deadzone=21,11 / fast_pskip=1 / chroma_qp_offset=-2 / threads=17 / lookahead_threads=2 / sliced_threads=0 / nr=0 / decimate=1 / interlaced=0 / bluray_compat=0 / constrained_intra=0 / bframes=3 / b_pyramid=2 / b_adapt=1 / b_bias=0 / direct=3 / weightb=1 / open_gop=0 / weightp=2 / keyint=240 / keyint_min=24 / scenecut=40 / intra_refresh=0 / rc_lookahead=50 / rc=2pass / mbtree=1 / bitrate=4659 / ratetol=1.0 / qcomp=0.60 / qpmin=0 / qpmax=69 / qpstep=4 / cplxblur=20.0 / qblur=0.5 / ip_ratio=1.40 / aq=1:1.00
Default : Yes
Forced : No

Audio
ID : 2
Format : DTS
Format/Info : Digital Theater Systems
Mode : 16
Format settings, Endianness : Big
Codec ID : A_DTS
Duration : 1 h 41 min
Bit rate mode : Constant
Bit rate : 1 509 kb/s
Channel(s) : 6 channels
Channel positions : Front: L C R, Side: L R, LFE
Sampling rate : 48.0 kHz
Frame rate : 93.750 FPS (512 SPF)
Bit depth : 24 bits
Compression mode : Lossy
Stream size : 1.07 GiB (24%)
Language : English
Default : Yes
Forced : No

Text #1
ID : 3
Format : UTF-8
Codec ID : S_TEXT/UTF8
Codec ID/Info : UTF-8 Plain Text
Duration : 1 h 33 min
Bit rate : 56 b/s
Count of elements : 1203
Stream size : 38.8 KiB (0%)
Language : English
Default : No
Forced : No

Text #2
ID : 4
Format : UTF-8
Codec ID : S_TEXT/UTF8
Codec ID/Info : UTF-8 Plain Text
Duration : 1 h 35 min
Bit rate : 63 b/s
Count of elements : 1429
Stream size : 44.4 KiB (0%)
Title : SDH
Language : English
Default : No
Forced : No

Menu
00:00:00.000 : en:00:00:00.000
00:03:36.049 : en:00:03:36.049
00:07:53.181 : en:00:07:53.181
00:13:41.195 : en:00:13:41.195
00:16:39.373 : en:00:16:39.373
00:20:45.035 : en:00:20:45.035
00:26:04.312 : en:00:26:04.312
00:29:27.265 : en:00:29:27.265
00:35:58.573 : en:00:35:58.573
00:40:36.475 : en:00:40:36.475
00:44:46.433 : en:00:44:46.433
00:48:15.100 : en:00:48:15.100
00:52:07.499 : en:00:52:07.499
00:56:06.780 : en:00:56:06.780
00:59:07.085 : en:00:59:07.085
01:03:17.710 : en:01:03:17.710
01:08:45.079 : en:01:08:45.079
01:14:03.230 : en:01:14:03.230
01:16:34.965 : en:01:16:34.965
01:20:46.925 : en:01:20:46.925
01:23:36.219 : en:01:23:36.219
01:30:09.737 : en:01:30:09.737
01:33:02.493 : en:01:33:02.493
01:35:41.235 : en:01:35:41.235

General
Isle.of.Dogs.2018.1080p.BluRay.x264-DRONES.mkv
Format : Matroska
Format version : Version 4 / Version 2
File size : 7.64 GiB
Duration : 1 h 41 min
Overall bit rate : 10.8 Mb/s
Encoded date : UTC 2018-07-04 16:21:29
Writing application : mkvmerge v24.0.0 ('Beyond The Pale') 64-bit
Writing library : libebml v1.3.6 + libmatroska v1.4.9

Video
ID : 1
Format : AVC
Format/Info : Advanced Video Codec
Format profile : High@L4.1
Format settings, CABAC : Yes
Format settings, RefFrames : 5 frames
Codec ID : V_MPEG4/ISO/AVC
Duration : 1 h 41 min
Bit rate : 9 303 kb/s
Width : 1 920 pixels
Height : 808 pixels
Display aspect ratio : 2.40:1
Frame rate mode : Constant
Frame rate : 23.976 (24000/1001) FPS
Color space : YUV
Chroma subsampling : 4:2:0
Bit depth : 8 bits
Scan type : Progressive
Bits/(Pixel*Frame) : 0.250
Stream size : 6.57 GiB (86%)
Writing library : x264 core 155 r2901 7d0ff22
Encoding settings : cabac=1 / ref=5 / deblock=1:-3:-3 / analyse=0x3:0x113 / me=umh / subme=8 / psy=1 / psy_rd=1.00:0.00 / mixed_ref=1 / me_range=16 / chroma_me=1 / trellis=1 / 8x8dct=1 / cqm=0 / deadzone=21,11 / fast_pskip=1 / chroma_qp_offset=-2 / threads=25 / lookahead_threads=4 / sliced_threads=0 / nr=0 / decimate=1 / interlaced=0 / bluray_compat=0 / constrained_intra=0 / bframes=3 / b_pyramid=2 / b_adapt=1 / b_bias=0 / direct=3 / weightb=1 / open_gop=0 / weightp=2 / keyint=240 / keyint_min=24 / scenecut=40 / intra_refresh=0 / rc_lookahead=50 / rc=2pass / mbtree=1 / bitrate=9303 / ratetol=1.0 / qcomp=0.60 / qpmin=0 / qpmax=69 / qpstep=4 / cplxblur=20.0 / qblur=0.5 / ip_ratio=1.40 / aq=1:1.00
Default : Yes
Forced : No

Audio
ID : 2
Format : DTS
Format/Info : Digital Theater Systems
Mode : 16
Format settings, Endianness : Big
Codec ID : A_DTS
Duration : 1 h 41 min
Bit rate mode : Constant
Bit rate : 1 509 kb/s
Channel(s) : 6 channels
Channel positions : Front: L C R, Side: L R, LFE
Sampling rate : 48.0 kHz
Frame rate : 93.750 FPS (512 SPF)
Bit depth : 24 bits
Compression mode : Lossy
Stream size : 1.07 GiB (14%)
Language : English
Default : Yes
Forced : No

Text #1
ID : 3
Format : UTF-8
Codec ID : S_TEXT/UTF8
Codec ID/Info : UTF-8 Plain Text
Duration : 1 h 33 min
Bit rate : 56 b/s
Count of elements : 1203
Stream size : 38.8 KiB (0%)
Language : English
Default : No
Forced : No

Text #2
ID : 4
Format : UTF-8
Codec ID : S_TEXT/UTF8
Codec ID/Info : UTF-8 Plain Text
Duration : 1 h 35 min
Bit rate : 63 b/s
Count of elements : 1429
Stream size : 44.4 KiB (0%)
Title : SDH
Language : English
Default : No
Forced : No

Menu
00:00:00.000 : en:00:00:00.000
00:03:36.049 : en:00:03:36.049
00:07:53.181 : en:00:07:53.181
00:13:41.195 : en:00:13:41.195
00:16:39.373 : en:00:16:39.373
00:20:45.035 : en:00:20:45.035
00:26:04.312 : en:00:26:04.312
00:29:27.265 : en:00:29:27.265
00:35:58.573 : en:00:35:58.573
00:40:36.475 : en:00:40:36.475
00:44:46.433 : en:00:44:46.433
00:48:15.100 : en:00:48:15.100
00:52:07.499 : en:00:52:07.499
00:56:06.780 : en:00:56:06.780
00:59:07.085 : en:00:59:07.085
01:03:17.710 : en:01:03:17.710
01:08:45.079 : en:01:08:45.079
01:14:03.230 : en:01:14:03.230
01:16:34.965 : en:01:16:34.965
01:20:46.925 : en:01:20:46.925
01:23:36.219 : en:01:23:36.219
01:30:09.737 : en:01:30:09.737
01:33:02.493 : en:01:33:02.493
01:35:41.235 : en:01:35:41.235


BDRip Screenshots

Isle of Dogs (2018)

Isle of Dogs (2018)

Isle of Dogs (2018)


BRRip Screenshots

Isle of Dogs (2018)

Isle of Dogs (2018)

Isle of Dogs (2018)


BDRip 720p Screenshots

Isle of Dogs (2018)

Isle of Dogs (2018)

Isle of Dogs (2018)


BDRip 1080p Screenshots

Isle of Dogs (2018)

Isle of Dogs (2018)

Isle of Dogs (2018)


Come Visit My Blog (•‿•)
SitemapAnima Yell! | Dinesh D'Souza | Shindo (Movie) 第47集 | Download Now | 365 Sex Thrills Positions, Tricks and Techniques for an Erotic Year