History Channel - Hunting ISIS: Those Who Stand Before Death (2018)

Posted By: notbanned
720p (HD) / WEBRip IMDb
History Channel - Hunting ISIS: Those Who Stand Before Death (2018)

History Channel - Hunting ISIS: Those Who Stand Before Death (2018)
WEBRip | 1280x720 | .MKV/AVC @ 2497 Kbps | 43 min 13 s | 812 MiB
Audio: English AAC 128 kbps, 2 channels | Subs: English
Genre: Documentary | Drama | War

A reinvigorated Pete returns to Iraq with his girlfriend Alex at his side. In Syria, an unexpected snafu leaves PJ weighing his options. Facing inevitable defeat in both countries, ISIS is determined to cause as much damage as possible on its way down. But signs of life are reappearing in areas freed from terrorist rule. In the minds of the volunteers as well, hope begins to creep in as they take stock of what they’ve accomplished and what lies ahead.

General
Unique ID : 263750585957602063590067610578476079533 (0xC66C83DFDB7D411A869120B834F819AD)
Complete name : Hunting.isis.Those.Who.Stand.Before.Death.720p.mkv
Format : Matroska
Format version : Version 4 / Version 2
File size : 812 MiB
Duration : 43 min 13 s
Overall bit rate : 2 627 kb/s

Video
ID : 1
Format : AVC
Format/Info : Advanced Video Codec
Format profile : Main@L3.1
Format settings, CABAC : Yes
Format settings, ReFrames : 4 frames
Codec ID : V_MPEG4/ISO/AVC
Duration : 43 min 13 s
Bit rate : 2 497 kb/s
Width : 1 280 pixels
Height : 720 pixels
Display aspect ratio : 16:9
Frame rate mode : Constant
Frame rate : 23.976 (24000/1001) FPS
Color space : YUV
Chroma subsampling : 4:2:0
Bit depth : 8 bits
Scan type : Progressive
Bits/(Pixel*Frame) : 0.113
Stream size : 772 MiB (95%)
Writing library : Zencoder Video Encoding System
Default : Yes
Forced : No

Audio
ID : 2
Format : AAC
Format/Info : Advanced Audio Codec
Format profile : LC
Codec ID : A_AAC
Duration : 43 min 13 s
Bit rate : 128 kb/s
Channel(s) : 2 channels
Channel positions : Front: L R
Sampling rate : 48.0 kHz
Frame rate : 46.875 FPS (1024 spf)
Compression mode : Lossy
Stream size : 39.5 MiB (5%)
Default : Yes
Forced : No


Screenshots:

History Channel - Hunting ISIS: Those Who Stand Before Death (2018)

History Channel - Hunting ISIS: Those Who Stand Before Death (2018)

History Channel - Hunting ISIS: Those Who Stand Before Death (2018)

History Channel - Hunting ISIS: Those Who Stand Before Death (2018)

Sitemap0 rponse | Hanbun no Tsuki ga Noboru Sora English Subbed | Alien: Covenant Alien: Covenant (2017) Horror, Science Fiction, ThrillerDer fremde Planet, den die Crew des Kolonisationsraumschiffs Covenant erforscht, wirkt paradiesisch: Doch als die Terraforming-Spezialistin Daniels und ihre Kollegen, darunter der Android Walter, Christopher und Tennessee, durch die bergige, bewaldete Landschaft laufen, fällt ihnen vor allem die merkwürdige, beunruhigende Stille auf: Kein Vogel ist zu hören – und auch kein anderes Tier. Bald schon merken die Entdecker, dass sie auf einem Planeten gelandet sind, der lebensfeindlicher kaum sein könnte. Blitzschnelle, hochintelligente und Säure-spritzende Aliens überfallen die Covenant-Crew, töten ein Mitglied nach dem anderen. Und dem Rest der Gruppe wird klar: So weit weg von der Heimat sind sie komplett auf sich allein gestellt... 2 Broke Girls (224) | 生忌快乐 | Saber Marionette J Again Episode 4 English Dubbed