NHK - Document 72 Hours: Where Cultures and Meat Meet (2018)

Posted By: notbanned
1080p (FullHD) / HDTV
NHK - Document 72 Hours: Where Cultures and Meat Meet (2018)

NHK - Document 72 Hours: Where Cultures and Meat Meet (2018)
HDTV | 1916x1080 | .MKV/AVC @ 9758 Kbps | 24 min 29 s | 1.77 GiB
Audio: English AC3 384 kbps, 2 channels | Subs: None
Genre: Documentary

From the outside, this butcher shop in Hiratsuka, a city just southwest of Tokyo, looks like any other. But lining its shelves are many kinds of meat rarely seen for sale in Japan, such as cow kidney and even pig's blood. Among the shoppers drawn by this vast array of meat are Peruvians buying for their usual weekend barbecue with family and relatives, and a Filipino woman cooking for her large family. The large volumes of meat purchased at this shop are transformed into ethnic dishes in people's kitchens. We listened to the stories of those who eat hearty, meaty meals while living far from their country of birth.

General
Complete name : Document.72.Hours.Where.Cultures.And.Meat.Meet.1080p.mkv
Format : Matroska
Format version : Version 4 / Version 2
File size : 1.77 GiB
Duration : 24 min 29 s
Overall bit rate : 10.3 Mb/s

Video
ID : 1
Format : AVC
Format/Info : Advanced Video Codec
Format profile : High@L4.2
Format settings, CABAC : Yes
Format settings, ReFrames : 4 frames
Codec ID : V_MPEG4/ISO/AVC
Duration : 24 min 29 s
Bit rate : 9 758 kb/s
Width : 1 916 pixels
Height : 1 080 pixels
Display aspect ratio : 16:9
Frame rate mode : Constant
Frame rate : 50.000 FPS
Color space : YUV
Chroma subsampling : 4:2:0
Bit depth : 8 bits
Scan type : Progressive
Bits/(Pixel*Frame) : 0.094
Stream size : 1.67 GiB (94%)
Writing library : x264 core 155 r2901 7d0ff22
Encoding settings : cabac=1 / ref=4 / deblock=1:0:0 / analyse=0x3:0x113 / me=hex / subme=8 / psy=1 / psy_rd=1.00:0.00 / mixed_ref=1 / me_range=16 / chroma_me=1 / trellis=2 / 8x8dct=1 / cqm=0 / deadzone=21,11 / fast_pskip=1 / chroma_qp_offset=-2 / threads=12 / lookahead_threads=2 / sliced_threads=0 / nr=0 / decimate=1 / interlaced=0 / bluray_compat=0 / constrained_intra=0 / bframes=3 / b_pyramid=2 / b_adapt=1 / b_bias=0 / direct=3 / weightb=1 / open_gop=0 / weightp=2 / keyint=250 / keyint_min=25 / scenecut=40 / intra_refresh=0 / rc_lookahead=50 / rc=crf / mbtree=1 / crf=20.0 / qcomp=0.60 / qpmin=0 / qpmax=69 / qpstep=4 / ip_ratio=1.40 / aq=1:1.00
Language : English
Default : Yes
Forced : No
Color range : Limited
Matrix coefficients : BT.709

Audio
ID : 2
Format : AC-3
Format/Info : Audio Coding 3
Format settings, Endianness : Big
Codec ID : A_AC3
Duration : 24 min 29 s
Bit rate mode : Constant
Bit rate : 384 kb/s
Channel(s) : 2 channels
Channel positions : Front: L R
Sampling rate : 48.0 kHz
Frame rate : 31.250 FPS (1536 spf)
Bit depth : 16 bits
Compression mode : Lossy
Stream size : 67.3 MiB (4%)
Language : English
Service kind : Complete Main
Default : Yes
Forced : No


Screenshots:

NHK - Document 72 Hours: Where Cultures and Meat Meet (2018)

NHK - Document 72 Hours: Where Cultures and Meat Meet (2018)

NHK - Document 72 Hours: Where Cultures and Meat Meet (2018)

NHK - Document 72 Hours: Where Cultures and Meat Meet (2018)

SitemapOne Piece 350 | Evan Hall | هربانة منها Liv und Maddie | Baixar toque para celular | The Tonight Show Starring Jimmy Fallon Season 6 Episode 51 s06e51