Clambake (1967)

Posted By: Tavaz
SD / BDRip IMDb
Clambake (1967)

Clambake (1967)
BDRip | MKV | 720x306 | English | H264 @ 1383 kbps | AAC @ 79 kbps | 1 h 39 min | 1.01 GiB
Genre: Music, Romance

The heir to an oil fortune trades places with a water-ski instructor at a Florida hotel to see if girls will like him for himself, rather than his father's money.


Clambake.1967.iNTERNAL.BDRip.x264-LiBRARiANS.mkv (1.0 GB)
Clambake.1967.iNTERNAL.BDRip.x264-LiBRARiANS.sub (2.8 MB)



General
Unique ID : 8258286331346060632175081631920428299 (0x6367CF3B1D9214E9C6915E98BB0150B)
Complete name : ./Clambake.1967.iNTERNAL.BDRip.x264-LiBRARiANS.mkv
Format : Matroska
Format version : Version 4 / Version 2
File size : 1.01 GiB
Duration : 1 h 39 min
Overall bit rate : 1 464 kb/s
Encoded date : UTC 2018-06-23 14:56:39
Writing application : mkvmerge v24.0.0 ('Beyond The Pale') 64-bit
Writing library : libebml v1.3.6 + libmatroska v1.4.9

Video
ID : 1
Format : AVC
Format/Info : Advanced Video Codec
Format profile : High@L3.1
Format settings : CABAC / 5 Ref Frames
Format settings, CABAC : Yes
Format settings, RefFrames : 5 frames
Codec ID : V_MPEG4/ISO/AVC
Duration : 1 h 39 min
Bit rate : 1 383 kb/s
Width : 720 pixels
Height : 306 pixels
Display aspect ratio : 2.35:1
Frame rate mode : Constant
Frame rate : 23.976 (24000/1001) FPS
Color space : YUV
Chroma subsampling : 4:2:0
Bit depth : 8 bits
Scan type : Progressive
Bits/(Pixel*Frame) : 0.262
Stream size : 981 MiB (94%)
Writing library : x264 core 155 r2901 7d0ff22
Encoding settings : cabac=1 / ref=5 / deblock=1:-3:-3 / analyse=0x3:0x113 / me=umh / subme=8 / psy=1 / psy_rd=1.00:0.25 / mixed_ref=1 / me_range=24 / chroma_me=1 / trellis=2 / 8x8dct=1 / cqm=0 / deadzone=21,11 / fast_pskip=1 / chroma_qp_offset=-4 / threads=10 / lookahead_threads=1 / sliced_threads=0 / nr=0 / decimate=1 / interlaced=0 / bluray_compat=0 / constrained_intra=0 / bframes=3 / b_pyramid=2 / b_adapt=1 / b_bias=0 / direct=3 / weightb=1 / open_gop=0 / weightp=2 / keyint=240 / keyint_min=24 / scenecut=40 / intra_refresh=0 / rc_lookahead=50 / rc=crf / mbtree=1 / crf=21.0 / qcomp=0.60 / qpmin=0 / qpmax=69 / qpstep=4 / ip_ratio=1.40 / aq=1:0.75
Default : Yes
Forced : No
Color range : Limited
Matrix coefficients : BT.709

Audio
ID : 2
Format : AAC
Format/Info : Advanced Audio Codec
Format profile : LC
Codec ID : A_AAC-2
Duration : 1 h 39 min
Bit rate : 79.2 kb/s
Channel(s) : 1 channel
Channel positions : Front: C
Sampling rate : 48.0 kHz
Frame rate : 46.875 FPS (1024 SPF)
Compression mode : Lossy
Delay relative to video : 9 ms
Stream size : 56.2 MiB (5%)
Language : English
Default : Yes
Forced : No

Menu
00:00:00.000 : en:00:00:00.000
00:09:25.023 : en:00:09:25.023
00:22:50.953 : en:00:22:50.953
00:33:54.783 : en:00:33:54.783
00:46:51.726 : en:00:46:51.726
00:59:47.334 : en:00:59:47.334
01:12:13.329 : en:01:12:13.329
01:23:05.147 : en:01:23:05.147





Clambake (1967)


Clambake (1967)


Clambake (1967)


Clambake (1967)


Clambake (1967)
SitemapMore Details | Earthian Episode 4 English Dubbed | Season 1 Episode 14 Slump-A-Rooney HD 720 The Clovehitch Killer | Verina Banks | AirPods Silicone Case Cover Protective Skin for Apple Airpod Charging Case *NEW