Big Legend (2018)

Posted By: Tavaz
720p (HD) / WEB-DL IMDb
Big Legend (2018)

Big Legend (2018)
WEB-DL | AVI | 1280x534 | MP4V-ES @ 3630 kbps | AC-3 @ 384 kbps | 1 h 29 min | 2.51 GiB
Genre: Action, Horror, Thriller

An ex-soldier ventures into the Pacific Northwest to uncover the truth behind his fiance's disappearance.

Big.Legend.2018.720p.WEB-DL.XviD.AC3-FGT.avi (2.5 GB)



General
Complete name : ./Big.Legend.2018.720p.WEB-DL.XviD.AC3-FGT.avi
Format : AVI
Format/Info : Audio Video Interleave
Format profile : OpenDML
File size : 2.51 GiB
Duration : 1 h 29 min
Overall bit rate : 4 025 kb/s
Movie name : Big.Legend.2018.720p.WEB-DL.XviD.AC3-FGT
Writing library : VirtualDub build 35491/release
Comment : Big.Legend.2018.720p.WEB-DL.XviD.AC3-FGT

Video
ID : 0
Format : MPEG-4 Visual
Format profile : Simple@L5
Format settings, BVOP : No
Format settings, QPel : No
Format settings, GMC : No warppoints
Format settings, Matrix : Default (H.263)
Codec ID : XVID
Codec ID/Hint : XviD
Duration : 1 h 29 min
Bit rate : 3 630 kb/s
Width : 1 280 pixels
Height : 534 pixels
Display aspect ratio : 2.40:1
Frame rate : 23.976 (24000/1001) FPS
Color space : YUV
Chroma subsampling : 4:2:0
Bit depth : 8 bits
Scan type : Progressive
Compression mode : Lossy
Bits/(Pixel*Frame) : 0.222
Stream size : 2.26 GiB (90%)
Writing library : Lavc58.1.100

Audio
ID : 1
Format : AC-3
Format/Info : Audio Coding 3
Format settings, Endianness : Big
Codec ID : 2000
Duration : 1 h 29 min
Bit rate mode : Constant
Bit rate : 384 kb/s
Channel(s) : 6 channels
Channel positions : Front: L C R, Side: L R, LFE
Sampling rate : 48.0 kHz
Frame rate : 31.250 FPS (1536 SPF)
Bit depth : 16 bits
Compression mode : Lossy
Stream size : 245 MiB (10%)
Alignment : Aligned on interleaves
Interleave, duration : 42 ms (1.00 video frame)
Interleave, preload duration : 512 ms
Service kind : Complete Main





Big Legend (2018)


Big Legend (2018)


Big Legend (2018)


Big Legend (2018)


Big Legend (2018)
SitemapKenia Os - Bonita ( Oficial) | Privacy policy | Dragon Ball Super Petra Hrebícková | Lobo Guerreiro Dublado Online Assistir Lobo Guerreiro Dublado Online HD 720p Um soldado da força especial chinesa com pontaria extraordinária é confrontado por um grupo de mercenários estrangeiros perigosos, que foram contratados por um traficante de drogas para assassiná-lo. Agora ele terá que usar todas as suas habilidades para sobreviver. Ver filme Lobo Guerreiro Dublado HD 720p Ver Filme Wolf Warrior / Zhan lang Dublado (2015) Assistir Filmes ... | View More