Subcategories

The S.O.S. Band - The Tabu Anthology [10CD Box Set] (2014)

Posted By: BlondStyle
The S.O.S. Band - The Tabu Anthology [10CD Box Set] (2014)

The S.O.S. Band - The Tabu Anthology [10CD Box Set] (2014)
R&B, Soul/Funk, Electronic, Disco | EAC Rip | FLAC, Tracks+CUE+LOG+Covers (JPEG) | 08:34:41 h. | 3,7 Gb
Label: Tabu/Demon Music Group Ltd. (EU) | Cat.# TABUBOX003 | Released: 2014-03-24 (1980-1991)

Following the release of Alexander O’Neal: The Tabu Anthology (TABUBOX0002) and The Tabu Records Box Set (TABUBOX0001) it gives us great pleasure to finally unveil the third box set of the trilogy from one of the most loved acts of the 1980s, so welcome to The S.O.S. Band: The Tabu Anthology. Curated with love by veteran expert, broadcaster, journalist, writer and all-round soulman Ralph Tee - compiler of the Philadelphia International 40th Anniversary Box Set, Alexander O’Neal: The Tabu Anthology and The Tabu Records Box Set, this superb anthology covers all of the S.O.S. Band’s original Tabu album releases plus 2 further discs – one featuring all their key 7” mixes and the other featuring all their key 12” releases. The S.O.S. Band were Tabu records most consistent hit-makers throughout the 1980s and early 90s kicking off with the effervescent “Take You Time (Do It Right)” in early 1980 through to “Sometimes I Wonder” in late 1991. Scoring 20 U.S. RnB hits and 6 U.S. Pop hits throughout this period, the band also scored several significant international successes too. In addition to this, we also have a 40 page booklet with an introduction by Ralph Tee and featuring all of the S.O.S. Band expanded edition sleeve notes courtesy of Justin ‘Musicology’ Kantor, all of which contain key biographical information, original photos and record scans. If you want a comprehensive overview of the S.O.S. Band’s entire recorded output, then look no further because it’s all contained here!
~Review by Demon Music Group Ltd.

The S.O.S. Band - The Tabu Anthology [10CD Box Set] (2014)

The S.O.S. Band - The Tabu Anthology [10CD Box Set] (2014)




Release of this 10CDs Box Set: 2014, March, 24 [CDs Tabu/Demon Music Group Ltd. (EU), Cat.# TABUBOX003 / UPC: 5014797139763]
All tracks ℗ 1980-1991 Tabu Records, Inc.
Under exclusive license from Hey Day Entertainment, LLC.
This compilation ℗© 2014 Demon Music Group Ltd.
Manufactured by Demon Music Group Ltd.
Marketed by Demon Music Group Ltd., London.
Demon Music Group Ltd. is a Worldwide company.
Manufactured in the E.U.


The S.O.S. Band - The Tabu Anthology [10CD Box Set] (2014):


The S.O.S. Band - The Tabu Anthology [10CD Box Set] (2014)

CD1: The S.O.S. Band - S.O.S. (1980)
R&B, Soul/Funk, Electronic, Disco | EAC Rip | FLAC, Tracks+CUE+LOG+Covers (JPEG) | 39:30 Min | 280,01 Mb
Label: Tabu/Demon Music Group Ltd. (EU) | Released: 2014-03-24 (1980-06-06)

"S.O.S." is the debut album released by the R&B band The S.O.S. Band on the Tabu label in the summer of 1980. It was produced by Sigidi. The album was a hit at nightclubs and "Take Your Time (Do It Right)" became a disco classic. The album peaked at #2 on the R&B albums chart. It also reached #12 on the Billboard 200. The album yielded the Billboard R&B number-one hit "Take Your Time (Do It Right)" The single also peaked at #3 on the Billboard Hot 100, #1 on the Hot Dance Club Play, and #51 on the UK Singles Chart. Two following singles, "S.O.S. (Dit Dit Dit Dash Dash Dash Dit Dit Dit)" and "What's Wrong with Our Love Affair?", also charted on the R&B chart, reaching #20 and #87 respectively.
~Wikipedia


Tracklist:

01. S.O.S. (Dit Dit Dit Dash Dash Dash Dit Dit Dit) (05.43)
02. What's Wrong With Our Love Affair? (04.49)
03. Open Letter (04.30)
04. Love Won'T Wait For Love (05.13)
05. Take Your Time (Do It Right) (07.42)
06. I'm In Love (03.30)
07. Take Love Where You Find It (05.56)
08. S.O.S. [Reprise] (01.49)

Exact Audio Copy V1.0 beta 3 from 29. August 2011

EAC extraction logfile from 24. March 2014, 14:52

The S.O.S. Band / S.O.S.

Used drive : PIONEER BD-RW BDR-207D Adapter: 4 ID: 0

Read mode : Secure
Utilize accurate stream : Yes
Defeat audio cache : Yes
Make use of C2 pointers : No

Read offset correction : 667
Overread into Lead-In and Lead-Out : No
Fill up missing offset samples with silence : Yes
Delete leading and trailing silent blocks : No
Null samples used in CRC calculations : Yes
Used interface : Native Win32 interface for Win NT & 2000
Gap handling : Appended to previous track

Used output format : User Defined Encoder
Selected bitrate : 1024 kBit/s
Quality : High
Add ID3 tag : No
Command line compressor : C:\Program Files (x86)\Exact Audio Copy\Flac\flac.exe
Additional command line options : -8 -V -T "artist=%artist%" -T "title=%title%" -T "album=%albumtitle%" -T "date=%year%" -T "tracknumber=%tracknr%" -T "genre=%genre%" %source%


TOC of the extracted CD

Track | Start | Length | Start sector | End sector
––––––––––––––––––––––––––––-
1 | 0:00.00 | 5:45.11 | 0 | 25885
2 | 5:45.11 | 4:52.00 | 25886 | 47785
3 | 10:37.11 | 4:32.12 | 47786 | 68197
4 | 15:09.23 | 5:15.72 | 68198 | 91894
5 | 20:25.20 | 7:44.29 | 91895 | 126723
6 | 28:09.49 | 3:32.32 | 126724 | 142655
7 | 31:42.06 | 5:58.27 | 142656 | 169532
8 | 37:40.33 | 1:49.08 | 169533 | 177715


Track 1

Filename H:\!!!!!!!!!!!!!!!!!!! EAC RIPS\The S.O.S. Band - The Tabu Anthology (2014)\CD1 - S.O.S\01 - S.O.S. (Dit Dit Dit Dash Dash Dash Dit Dit Dit).wav

Pre-gap length 0:00:02.00

Peak level 96.6 %
Extraction speed 2.9 X
Track quality 100.0 %
Test CRC A4EB9FFA
Copy CRC A4EB9FFA
Track not present in AccurateRip database
Copy OK

Track 2

Filename H:\!!!!!!!!!!!!!!!!!!! EAC RIPS\The S.O.S. Band - The Tabu Anthology (2014)\CD1 - S.O.S\02 - What's Wrong With Our Love Affair.wav

Pre-gap length 0:00:02.00

Peak level 96.6 %
Extraction speed 3.2 X
Track quality 100.0 %
Test CRC 5881FE93
Copy CRC 5881FE93
Track not present in AccurateRip database
Copy OK

Track 3

Filename H:\!!!!!!!!!!!!!!!!!!! EAC RIPS\The S.O.S. Band - The Tabu Anthology (2014)\CD1 - S.O.S\03 - Open Letter.wav

Pre-gap length 0:00:02.00

Peak level 96.6 %
Extraction speed 3.5 X
Track quality 100.0 %
Test CRC E265F54E
Copy CRC E265F54E
Track not present in AccurateRip database
Copy OK

Track 4

Filename H:\!!!!!!!!!!!!!!!!!!! EAC RIPS\The S.O.S. Band - The Tabu Anthology (2014)\CD1 - S.O.S\04 - Love Won't Wait For Love.wav

Pre-gap length 0:00:02.00

Peak level 96.6 %
Extraction speed 3.8 X
Track quality 100.0 %
Test CRC CE24C412
Copy CRC CE24C412
Track not present in AccurateRip database
Copy OK

Track 5

Filename H:\!!!!!!!!!!!!!!!!!!! EAC RIPS\The S.O.S. Band - The Tabu Anthology (2014)\CD1 - S.O.S\05 - Take Your Time (Do It Right).wav

Pre-gap length 0:00:02.00

Peak level 96.6 %
Extraction speed 4.3 X
Track quality 100.0 %
Test CRC 228C1869
Copy CRC 228C1869
Track not present in AccurateRip database
Copy OK

Track 6

Filename H:\!!!!!!!!!!!!!!!!!!! EAC RIPS\The S.O.S. Band - The Tabu Anthology (2014)\CD1 - S.O.S\06 - I'm In Love.wav

Pre-gap length 0:00:02.00

Peak level 96.6 %
Extraction speed 4.2 X
Track quality 100.0 %
Test CRC 18BE414A
Copy CRC 18BE414A
Track not present in AccurateRip database
Copy OK

Track 7

Filename H:\!!!!!!!!!!!!!!!!!!! EAC RIPS\The S.O.S. Band - The Tabu Anthology (2014)\CD1 - S.O.S\07 - Take Love Where You Find It.wav

Pre-gap length 0:00:02.00

Peak level 96.6 %
Extraction speed 4.6 X
Track quality 100.0 %
Test CRC 795F6384
Copy CRC 795F6384
Track not present in AccurateRip database
Copy OK

Track 8

Filename H:\!!!!!!!!!!!!!!!!!!! EAC RIPS\The S.O.S. Band - The Tabu Anthology (2014)\CD1 - S.O.S\08 - S.O.S. (Reprise).wav

Pre-gap length 0:00:02.00

Peak level 96.6 %
Extraction speed 3.8 X
Track quality 100.0 %
Test CRC 6AE2FF0D
Copy CRC 6AE2FF0D
Track not present in AccurateRip database
Copy OK


None of the tracks are present in the AccurateRip database

No errors occurred

End of status report

–– CUETools DB Plugin V2.1.3

[CTDB TOCID: 5.19bNDlMbiH_LK36szznsfkFdA-] disk not present in database, Submit result: 5.19bNDlMbiH_LK36szznsfkFdA- has been uploaded


==== Log checksum 37ECC2BE2466B755D21B1A635124E29BA0A7EDCAF5D95B55ED57EECF8AC8CEB1 ====

––––––––––––––––––––––––––––––––––––––––
Analyzed: The S.O.S. Band / S.O.S.
––––––––––––––––––––––––––––––––––––––––

DR Peak RMS Duration Track
––––––––––––––––––––––––––––––––––––––––
DR12 -0.30 dB -13.66 dB 5:45 01-S.O.S. (Dit Dit Dit Dash Dash Dash Dit Dit Dit)
DR12 -0.30 dB -14.61 dB 4:52 02-What's Wrong With Our Love Affair?
DR14 -0.30 dB -15.69 dB 4:32 03-Open Letter
DR13 -0.30 dB -14.14 dB 5:16 04-Love Won't Wait For Love
DR12 -0.30 dB -14.16 dB 7:44 05-Take Your Time (Do It Right)
DR11 -0.30 dB -13.57 dB 3:32 06-I'm In Love
DR12 -0.30 dB -13.70 dB 5:58 07-Take Love Where You Find It
DR12 -0.30 dB -14.37 dB 1:49 08-S.O.S. (Reprise)
––––––––––––––––––––––––––––––––––––––––

Number of tracks: 8
Official DR value: DR12

Samplerate: 44100 Hz
Channels: 2
Bits per sample: 16
Bitrate: 954 kbps
Codec: FLAC
================================================================================


The S.O.S. Band - The Tabu Anthology [10CD Box Set] (2014)

CD2: The S.O.S. Band - Too (1981)
R&B, Soul/Funk, Electronic, Disco | EAC Rip | FLAC, Tracks+CUE+LOG+Covers (JPEG) | 42:35 Min | 288,12 Mb
Label: Tabu/Demon Music Group Ltd. (EU) | Released: 2014-03-24 (1981-07-31)

"Too" is the second album released by the R&B band The S.O.S. Band on the Tabu label in July 1981. It was produced by Sigidi. The album peaked at #30 on the R&B albums chart. It also reached #117 on the Billboard 200. The album yielded two Billboard R&B chart singles, "Do It Now (Part 1)" and "You" They peaked at #15 and #64 respectively.
~Wikipedia


Tracklist:

01. It's A Long Way To The Top (04.12)
02. Do It Now (07.03)
03. There Is No Limit (05.16)
04. You (04.32)
05. Stay (04.33)
06. Are You Ready? (05.05)
07. Do You Know Where Your Children Are? (03.33)
08. For The Brothers That Ain'T Here (04.28)
09. Unborn Child (03.49)

Exact Audio Copy V1.0 beta 3 from 29. August 2011

EAC extraction logfile from 24. March 2014, 15:19

The S.O.S. Band / The S.O.S. Band Too

Used drive : PIONEER BD-RW BDR-207D Adapter: 4 ID: 0

Read mode : Secure
Utilize accurate stream : Yes
Defeat audio cache : Yes
Make use of C2 pointers : No

Read offset correction : 667
Overread into Lead-In and Lead-Out : No
Fill up missing offset samples with silence : Yes
Delete leading and trailing silent blocks : No
Null samples used in CRC calculations : Yes
Used interface : Native Win32 interface for Win NT & 2000
Gap handling : Appended to previous track

Used output format : User Defined Encoder
Selected bitrate : 1024 kBit/s
Quality : High
Add ID3 tag : No
Command line compressor : C:\Program Files (x86)\Exact Audio Copy\Flac\flac.exe
Additional command line options : -8 -V -T "artist=%artist%" -T "title=%title%" -T "album=%albumtitle%" -T "date=%year%" -T "tracknumber=%tracknr%" -T "genre=%genre%" %source%


TOC of the extracted CD

Track | Start | Length | Start sector | End sector
––––––––––––––––––––––––––––-
1 | 0:00.00 | 4:12.33 | 0 | 18932
2 | 4:12.33 | 7:03.70 | 18933 | 50727
3 | 11:16.28 | 5:16.32 | 50728 | 74459
4 | 16:32.60 | 4:32.48 | 74460 | 94907
5 | 21:05.33 | 4:33.10 | 94908 | 115392
6 | 25:38.43 | 5:05.40 | 115393 | 138307
7 | 30:44.08 | 3:33.02 | 138308 | 154284
8 | 34:17.10 | 4:28.10 | 154285 | 174394
9 | 38:45.20 | 3:49.34 | 174395 | 191603


Track 1

Filename H:\!!!!!!!!!!!!!!!!!!! EAC RIPS\The S.O.S. Band - The Tabu Anthology (2014)\CD2 - The S.O.S. Band Too\01 - It's A Long Way To The Top.wav

Pre-gap length 0:00:02.00

Peak level 96.6 %
Extraction speed 2.8 X
Track quality 100.0 %
Test CRC CE4D1199
Copy CRC CE4D1199
Track not present in AccurateRip database
Copy OK

Track 2

Filename H:\!!!!!!!!!!!!!!!!!!! EAC RIPS\The S.O.S. Band - The Tabu Anthology (2014)\CD2 - The S.O.S. Band Too\02 - Do It Now.wav

Peak level 96.6 %
Extraction speed 3.1 X
Track quality 99.9 %
Test CRC DC59DA60
Copy CRC DC59DA60
Track not present in AccurateRip database
Copy OK

Track 3

Filename H:\!!!!!!!!!!!!!!!!!!! EAC RIPS\The S.O.S. Band - The Tabu Anthology (2014)\CD2 - The S.O.S. Band Too\03 - There Is No Limit.wav

Peak level 96.6 %
Extraction speed 3.6 X
Track quality 100.0 %
Test CRC 4968A2A8
Copy CRC 4968A2A8
Track not present in AccurateRip database
Copy OK

Track 4

Filename H:\!!!!!!!!!!!!!!!!!!! EAC RIPS\The S.O.S. Band - The Tabu Anthology (2014)\CD2 - The S.O.S. Band Too\04 - You.wav

Peak level 96.6 %
Extraction speed 3.8 X
Track quality 100.0 %
Test CRC F11A5147
Copy CRC F11A5147
Track not present in AccurateRip database
Copy OK

Track 5

Filename H:\!!!!!!!!!!!!!!!!!!! EAC RIPS\The S.O.S. Band - The Tabu Anthology (2014)\CD2 - The S.O.S. Band Too\05 - Stay.wav

Peak level 96.6 %
Extraction speed 4.0 X
Track quality 100.0 %
Test CRC DEF55917
Copy CRC DEF55917
Track not present in AccurateRip database
Copy OK

Track 6

Filename H:\!!!!!!!!!!!!!!!!!!! EAC RIPS\The S.O.S. Band - The Tabu Anthology (2014)\CD2 - The S.O.S. Band Too\06 - Are You Ready.wav

Peak level 96.6 %
Extraction speed 4.3 X
Track quality 100.0 %
Test CRC 12199B81
Copy CRC 12199B81
Track not present in AccurateRip database
Copy OK

Track 7

Filename H:\!!!!!!!!!!!!!!!!!!! EAC RIPS\The S.O.S. Band - The Tabu Anthology (2014)\CD2 - The S.O.S. Band Too\07 - Do You Know Where Your Children Are.wav

Peak level 96.6 %
Extraction speed 4.2 X
Track quality 100.0 %
Test CRC 557606B4
Copy CRC 557606B4
Track not present in AccurateRip database
Copy OK

Track 8

Filename H:\!!!!!!!!!!!!!!!!!!! EAC RIPS\The S.O.S. Band - The Tabu Anthology (2014)\CD2 - The S.O.S. Band Too\08 - For The Brothers That Ain't Here.wav

Peak level 96.6 %
Extraction speed 4.5 X
Track quality 100.0 %
Test CRC CC22F785
Copy CRC CC22F785
Track not present in AccurateRip database
Copy OK

Track 9

Filename H:\!!!!!!!!!!!!!!!!!!! EAC RIPS\The S.O.S. Band - The Tabu Anthology (2014)\CD2 - The S.O.S. Band Too\09 - Unborn Child.wav

Peak level 96.6 %
Extraction speed 4.0 X
Track quality 99.9 %
Test CRC 15F3D6A4
Copy CRC 15F3D6A4
Track not present in AccurateRip database
Copy OK


None of the tracks are present in the AccurateRip database

No errors occurred

End of status report

–– CUETools DB Plugin V2.1.3

[CTDB TOCID: 2Iq02_uCHdu8zMvKUrg2iUxncFM-] disk not present in database, Submit result: 2Iq02_uCHdu8zMvKUrg2iUxncFM- has been uploaded


==== Log checksum 85B8550A8663A2D45E09628D6C488151CAA947561B13CE1BB82288BB6E0416B5 ====

––––––––––––––––––––––––––––––––––––––––
Analyzed: The S.O.S. Band / The S.O.S. Band Too
––––––––––––––––––––––––––––––––––––––––

DR Peak RMS Duration Track
––––––––––––––––––––––––––––––––––––––––
DR10 -0.30 dB -13.06 dB 4:12 01-It's A Long Way To The Top
DR11 -0.30 dB -13.01 dB 7:04 02-Do It Now
DR12 -0.30 dB -13.55 dB 5:16 03-There Is No Limit
DR11 -0.30 dB -13.27 dB 4:33 04-You
DR11 -0.30 dB -14.38 dB 4:33 05-Stay
DR12 -0.30 dB -13.87 dB 5:06 06-Are You Ready?
DR11 -0.30 dB -13.51 dB 3:33 07-Do You Know Where Your Children Are?
DR10 -0.30 dB -12.42 dB 4:28 08-For The Brothers That Ain't Here
DR11 -0.30 dB -14.95 dB 3:49 09-Unborn Child
––––––––––––––––––––––––––––––––––––––––

Number of tracks: 9
Official DR value: DR11

Samplerate: 44100 Hz
Channels: 2
Bits per sample: 16
Bitrate: 811 kbps
Codec: FLAC
================================================================================


The S.O.S. Band - The Tabu Anthology [10CD Box Set] (2014)

CD3: The S.O.S. Band - III (1982)
R&B, Soul/Funk, Electronic, Disco | EAC Rip | FLAC, Tracks+CUE+LOG+Covers (JPEG) | 44:58 Min | 303,25 Mb
Label: Tabu/Demon Music Group Ltd. (EU) | Released: 2014-03-24 (1982-10-29)

"III" is the third album released by the R&B band The S.O.S. Band on the Tabu label in October 1982. It was produced by Ricky Sylvers and Gene Dozier. The album peaked at #27 on the R&B albums chart. It also reached #172 on the Billboard 200. The album yielded two Billboard R&B chart singles, "High Hopes" and "Have It Your Way", each peaking at #25 and #57 respectively. "High Hopes" also reached #49 on the Hot Dance Club Play chart. The third single, "Groovin' (That's What We're Doin')", peaked at #47 on the Hot Dance Club Play chart and #72 on the UK Singles Chart. "High Hopes" is notable for being the first collaboration between the group and Jimmy Jam and Terry Lewis, who would go on to write and produce several hits for the group.
~Wikipedia


Tracklist:

01. Can't Get Enough (05.45)
02. High Hopes (06.29)
03. Have It Your Way (05.01)
04. Your Love (It's The One For Me) (05.17)
05. Good & Plenty (04.30)
06. Looking For You (04.28)
07. These Are The Things (04.48)
08. You Shake Me Up (04.00)
09. Groovin' (That's What We're Doin') (04.19)

Exact Audio Copy V1.0 beta 3 from 29. August 2011

EAC extraction logfile from 24. March 2014, 15:49

The S.O.S. Band / The S.O.S. Band III

Used drive : PIONEER BD-RW BDR-207D Adapter: 4 ID: 0

Read mode : Secure
Utilize accurate stream : Yes
Defeat audio cache : Yes
Make use of C2 pointers : No

Read offset correction : 667
Overread into Lead-In and Lead-Out : No
Fill up missing offset samples with silence : Yes
Delete leading and trailing silent blocks : No
Null samples used in CRC calculations : Yes
Used interface : Native Win32 interface for Win NT & 2000
Gap handling : Appended to previous track

Used output format : User Defined Encoder
Selected bitrate : 1024 kBit/s
Quality : High
Add ID3 tag : No
Command line compressor : C:\Program Files (x86)\Exact Audio Copy\Flac\flac.exe
Additional command line options : -8 -V -T "artist=%artist%" -T "title=%title%" -T "album=%albumtitle%" -T "date=%year%" -T "tracknumber=%tracknr%" -T "genre=%genre%" %source%


TOC of the extracted CD

Track | Start | Length | Start sector | End sector
––––––––––––––––––––––––––––-
1 | 0:00.00 | 5:47.00 | 0 | 26024
2 | 5:47.00 | 6:31.16 | 26025 | 55365
3 | 12:18.16 | 5:03.71 | 55366 | 78161
4 | 17:22.12 | 5:19.64 | 78162 | 102150
5 | 22:42.01 | 4:32.54 | 102151 | 122604
6 | 27:14.55 | 4:30.48 | 122605 | 142902
7 | 31:45.28 | 4:50.65 | 142903 | 164717
8 | 36:36.18 | 4:02.39 | 164718 | 182906
9 | 40:38.57 | 4:19.45 | 182907 | 202376


Track 1

Filename H:\!!!!!!!!!!!!!!!!!!! EAC RIPS\The S.O.S. Band - The Tabu Anthology (2014)\CD3 - The S.O.S. Band III\01 - Can't Get Enough.wav

Pre-gap length 0:00:02.00

Peak level 96.6 %
Extraction speed 2.9 X
Track quality 100.0 %
Test CRC C02C3007
Copy CRC C02C3007
Track not present in AccurateRip database
Copy OK

Track 2

Filename H:\!!!!!!!!!!!!!!!!!!! EAC RIPS\The S.O.S. Band - The Tabu Anthology (2014)\CD3 - The S.O.S. Band III\02 - High Hopes.wav

Pre-gap length 0:00:02.00

Peak level 96.6 %
Extraction speed 3.4 X
Track quality 100.0 %
Test CRC E81B73D3
Copy CRC E81B73D3
Track not present in AccurateRip database
Copy OK

Track 3

Filename H:\!!!!!!!!!!!!!!!!!!! EAC RIPS\The S.O.S. Band - The Tabu Anthology (2014)\CD3 - The S.O.S. Band III\03 - Have It Your Way.wav

Pre-gap length 0:00:02.00

Peak level 96.6 %
Extraction speed 3.6 X
Track quality 100.0 %
Test CRC 405A9D43
Copy CRC 405A9D43
Track not present in AccurateRip database
Copy OK

Track 4

Filename H:\!!!!!!!!!!!!!!!!!!! EAC RIPS\The S.O.S. Band - The Tabu Anthology (2014)\CD3 - The S.O.S. Band III\04 - Your Love (It's The One For Me).wav

Pre-gap length 0:00:02.00

Peak level 96.6 %
Extraction speed 3.9 X
Track quality 100.0 %
Test CRC 4036074A
Copy CRC 4036074A
Track not present in AccurateRip database
Copy OK

Track 5

Filename H:\!!!!!!!!!!!!!!!!!!! EAC RIPS\The S.O.S. Band - The Tabu Anthology (2014)\CD3 - The S.O.S. Band III\05 - Good & Plenty.wav

Pre-gap length 0:00:02.00

Peak level 96.6 %
Extraction speed 4.1 X
Track quality 100.0 %
Test CRC F022BD2B
Copy CRC F022BD2B
Track not present in AccurateRip database
Copy OK

Track 6

Filename H:\!!!!!!!!!!!!!!!!!!! EAC RIPS\The S.O.S. Band - The Tabu Anthology (2014)\CD3 - The S.O.S. Band III\06 - Looking For You.wav

Pre-gap length 0:00:02.00

Peak level 96.6 %
Extraction speed 4.3 X
Track quality 100.0 %
Test CRC DA6994A1
Copy CRC DA6994A1
Track not present in AccurateRip database
Copy OK

Track 7

Filename H:\!!!!!!!!!!!!!!!!!!! EAC RIPS\The S.O.S. Band - The Tabu Anthology (2014)\CD3 - The S.O.S. Band III\07 - These Are The Things.wav

Pre-gap length 0:00:02.00

Peak level 96.6 %
Extraction speed 4.5 X
Track quality 100.0 %
Test CRC 8729434F
Copy CRC 8729434F
Track not present in AccurateRip database
Copy OK

Track 8

Filename H:\!!!!!!!!!!!!!!!!!!! EAC RIPS\The S.O.S. Band - The Tabu Anthology (2014)\CD3 - The S.O.S. Band III\08 - You Shake Me Up.wav

Pre-gap length 0:00:02.00

Peak level 96.6 %
Extraction speed 4.5 X
Track quality 100.0 %
Test CRC 661CB5C3
Copy CRC 661CB5C3
Track not present in AccurateRip database
Copy OK

Track 9

Filename H:\!!!!!!!!!!!!!!!!!!! EAC RIPS\The S.O.S. Band - The Tabu Anthology (2014)\CD3 - The S.O.S. Band III\09 - Groovin' (That's What We're Doin').wav

Pre-gap length 0:00:02.00

Peak level 96.6 %
Extraction speed 4.2 X
Track quality 99.9 %
Test CRC 773C368A
Copy CRC 773C368A
Track not present in AccurateRip database
Copy OK


None of the tracks are present in the AccurateRip database

No errors occurred

End of status report

–– CUETools DB Plugin V2.1.3

[CTDB TOCID: r_PURkVAAU_Lpv_sovUdmz39wrI-] disk not present in database, Submit result: r_PURkVAAU_Lpv_sovUdmz39wrI- has been uploaded


==== Log checksum 55A0C10A794BBB1F12F8DE4AE91D9251CA343C03BA0CF0D43D4AE38A910397BB ====

––––––––––––––––––––––––––––––––––––––––
Analyzed: The S.O.S. Band / The S.O.S. Band III
––––––––––––––––––––––––––––––––––––––––

DR Peak RMS Duration Track
––––––––––––––––––––––––––––––––––––––––
DR11 -0.30 dB -12.53 dB 5:47 01-Can't Get Enough
DR10 -0.30 dB -11.55 dB 6:31 02-High Hopes
DR11 -0.30 dB -13.12 dB 5:04 03-Have It Your Way
DR9 -0.30 dB -10.88 dB 5:20 04-Your Love (It's The One For Me)
DR11 -0.30 dB -12.61 dB 4:33 05-Good & Plenty
DR10 -0.30 dB -11.73 dB 4:31 06-Looking For You
DR10 -0.30 dB -12.65 dB 4:51 07-These Are The Things
DR10 -0.30 dB -12.34 dB 4:03 08-You Shake Me Up
DR11 -0.30 dB -12.55 dB 4:20 09-Groovin' (That's What We're Doin')
––––––––––––––––––––––––––––––––––––––––

Number of tracks: 9
Official DR value: DR11

Samplerate: 44100 Hz
Channels: 2
Bits per sample: 16
Bitrate: 909 kbps
Codec: FLAC
================================================================================


The S.O.S. Band - The Tabu Anthology [10CD Box Set] (2014)

CD4: The S.O.S. Band - On The Rise (1983)
R&B, Soul/Funk, Electronic, Disco | EAC Rip | FLAC, Tracks+CUE+LOG+Covers (JPEG) | 42:05 Min | 296,67 Mb
Label: Tabu/Demon Music Group Ltd. (EU) | Released: 2014-03-24 (1983-07-01)

"On the Rise" is the fourth album released by the R&B band The S.O.S. Band on the Tabu label in July 1983. It was produced by Jimmy Jam and Terry Lewis and Gene Dozier. The album peaked at #7 on the R&B albums chart. It also reached #47 on the Billboard 200. The album yielded two Billboard R&B Top Ten singles, "Just Be Good to Me" and "Tell Me If You Still Care", each peaking at #2 and #5 respectively. Both singles also charted on the Billboard Hot 100, reaching #55 and #65 respectively. "Just Be Good to Me" also peaked at #3 on the Hot Dance Club Play chart and #13 on the UK Singles Chart. The third single, "For Your Love", also charted on the R&B chart, reaching #34. The album also includes a cover of Johnnie Taylor's 1968 hit song, "Who's Making Love".
~Wikipedia


Tracklist:

01. Tell Me If You Still Care (06.57)
02. Just Be Good To Me (08.59)
03. For Your Love (06.08)
04. I'm Not Runnin' (04.31)
05. If You Want My Love (04.16)
06. On The Rise (03.29)
07. Who's Making Love (04.13)
08. Steppin' The Stones (03.16)

Exact Audio Copy V1.0 beta 3 from 29. August 2011

EAC extraction logfile from 24. March 2014, 16:08

The S.O.S. Band / On The Rise

Used drive : PIONEER BD-RW BDR-207D Adapter: 4 ID: 0

Read mode : Secure
Utilize accurate stream : Yes
Defeat audio cache : Yes
Make use of C2 pointers : No

Read offset correction : 667
Overread into Lead-In and Lead-Out : No
Fill up missing offset samples with silence : Yes
Delete leading and trailing silent blocks : No
Null samples used in CRC calculations : Yes
Used interface : Native Win32 interface for Win NT & 2000
Gap handling : Appended to previous track

Used output format : User Defined Encoder
Selected bitrate : 1024 kBit/s
Quality : High
Add ID3 tag : No
Command line compressor : C:\Program Files (x86)\Exact Audio Copy\Flac\flac.exe
Additional command line options : -8 -V -T "artist=%artist%" -T "title=%title%" -T "album=%albumtitle%" -T "date=%year%" -T "tracknumber=%tracknr%" -T "genre=%genre%" %source%


TOC of the extracted CD

Track | Start | Length | Start sector | End sector
––––––––––––––––––––––––––––-
1 | 0:00.00 | 6:59.13 | 0 | 31437
2 | 6:59.13 | 9:01.03 | 31438 | 72015
3 | 16:00.16 | 6:10.09 | 72016 | 99774
4 | 22:10.25 | 4:33.11 | 99775 | 120260
5 | 26:43.36 | 4:18.23 | 120261 | 139633
6 | 31:01.59 | 3:31.06 | 139634 | 155464
7 | 34:32.65 | 4:15.48 | 155465 | 174637
8 | 38:48.38 | 3:16.51 | 174638 | 189388


Track 1

Filename H:\!!!!!!!!!!!!!!!!!!! EAC RIPS\The S.O.S. Band - The Tabu Anthology (2014)\CD4 - On The Rise\01 - Tell Me If You Still Care.wav

Pre-gap length 0:00:02.00

Peak level 96.6 %
Extraction speed 5.0 X
Track quality 100.0 %
Test CRC 34C344A1
Copy CRC 34C344A1
Track not present in AccurateRip database
Copy OK

Track 2

Filename H:\!!!!!!!!!!!!!!!!!!! EAC RIPS\The S.O.S. Band - The Tabu Anthology (2014)\CD4 - On The Rise\02 - Just Be Good To Me.wav

Pre-gap length 0:00:02.00

Peak level 98.9 %
Extraction speed 6.0 X
Track quality 100.0 %
Test CRC 94526A7E
Copy CRC 94526A7E
Track not present in AccurateRip database
Copy OK

Track 3

Filename H:\!!!!!!!!!!!!!!!!!!! EAC RIPS\The S.O.S. Band - The Tabu Anthology (2014)\CD4 - On The Rise\03 - For Your Love.wav

Pre-gap length 0:00:02.00

Peak level 96.6 %
Extraction speed 6.5 X
Track quality 100.0 %
Test CRC 804609C4
Copy CRC 804609C4
Track not present in AccurateRip database
Copy OK

Track 4

Filename H:\!!!!!!!!!!!!!!!!!!! EAC RIPS\The S.O.S. Band - The Tabu Anthology (2014)\CD4 - On The Rise\04 - I'm Not Runnin'.wav

Pre-gap length 0:00:02.00

Peak level 96.6 %
Extraction speed 6.7 X
Track quality 100.0 %
Test CRC 38DB6253
Copy CRC 38DB6253
Track not present in AccurateRip database
Copy OK

Track 5

Filename H:\!!!!!!!!!!!!!!!!!!! EAC RIPS\The S.O.S. Band - The Tabu Anthology (2014)\CD4 - On The Rise\05 - If You Want My Love.wav

Pre-gap length 0:00:02.00

Peak level 96.6 %
Extraction speed 6.2 X
Track quality 99.9 %
Test CRC 1BAF891D
Copy CRC 1BAF891D
Track not present in AccurateRip database
Copy OK

Track 6

Filename H:\!!!!!!!!!!!!!!!!!!! EAC RIPS\The S.O.S. Band - The Tabu Anthology (2014)\CD4 - On The Rise\06 - On The Rise.wav

Pre-gap length 0:00:02.00

Peak level 96.6 %
Extraction speed 6.9 X
Track quality 100.0 %
Test CRC 84BA0EAA
Copy CRC 84BA0EAA
Track not present in AccurateRip database
Copy OK

Track 7

Filename H:\!!!!!!!!!!!!!!!!!!! EAC RIPS\The S.O.S. Band - The Tabu Anthology (2014)\CD4 - On The Rise\07 - Who's Making Love.wav

Pre-gap length 0:00:02.00

Peak level 96.6 %
Extraction speed 6.5 X
Track quality 99.9 %
Test CRC FF3A0ED0
Copy CRC FF3A0ED0
Track not present in AccurateRip database
Copy OK

Track 8

Filename H:\!!!!!!!!!!!!!!!!!!! EAC RIPS\The S.O.S. Band - The Tabu Anthology (2014)\CD4 - On The Rise\08 - Steppin' The Stones.wav

Pre-gap length 0:00:02.00

Peak level 96.6 %
Extraction speed 7.2 X
Track quality 100.0 %
Test CRC 1187A335
Copy CRC 1187A335
Track not present in AccurateRip database
Copy OK


None of the tracks are present in the AccurateRip database

No errors occurred

End of status report

–– CUETools DB Plugin V2.1.3

[CTDB TOCID: zJ7Zm41baJPxIhFWNg2WX.7ecF8-] disk not present in database, Submit result: zJ7Zm41baJPxIhFWNg2WX.7ecF8- has been uploaded


==== Log checksum 8F36944DDC8E93EBA6B47C70D0C57467D8CF8128A08C3AC823EEDE02B0637A51 ====

––––––––––––––––––––––––––––––––––––––––
Analyzed: The S.O.S. Band / On The Rise
––––––––––––––––––––––––––––––––––––––––

DR Peak RMS Duration Track
––––––––––––––––––––––––––––––––––––––––
DR12 -0.30 dB -13.59 dB 6:59 01-Tell Me If You Still Care
DR10 -0.09 dB -11.69 dB 9:01 02-Just Be Good To Me
DR10 -0.30 dB -11.79 dB 6:10 03-For Your Love
DR10 -0.30 dB -12.11 dB 4:33 04-I'm Not Runnin'
DR11 -0.30 dB -12.63 dB 4:18 05-If You Want My Love
DR11 -0.30 dB -12.93 dB 3:31 06-On The Rise
DR10 -0.30 dB -11.26 dB 4:16 07-Who's Making Love
DR11 -0.30 dB -12.55 dB 3:17 08-Steppin' The Stones
––––––––––––––––––––––––––––––––––––––––

Number of tracks: 8
Official DR value: DR11

Samplerate: 44100 Hz
Channels: 2
Bits per sample: 16
Bitrate: 858 kbps
Codec: FLAC
================================================================================


The S.O.S. Band - The Tabu Anthology [10CD Box Set] (2014)

CD5: The S.O.S. Band - Just The Way You Like It (1984)
R&B, Soul/Funk, Electronic, Disco | EAC Rip | FLAC, Tracks+CUE+LOG+Covers (JPEG) | 45:16 Min | 329,52 Mb
Label: Tabu/Demon Music Group Ltd. (EU) | Released: 2014-03-24 (1984-08-03)

"Just the Way You Like It" is the fifth album released by the R&B band The S.O.S. Band on the Tabu label in August 1984. It was produced mostly by Jimmy Jam and Terry Lewis with additional production from the band themselves. The album peaked at #6 on the R&B albums chart. It also reached #60 on the Billboard 200. The title track reached the Billboard R&B Top Ten, peaking at #6. The single also peaked at #64 on the Billboard Hot 100 and #32 on the UK Singles Chart. Two following singles, "No One's Gonna Love You" and "Weekend Girl", also charted on the R&B chart, reaching #15 and #40 respectively. The fourth and final single released, "Break Up", failed to chart.
~Wikipedia


Tracklist:

01. No One's Gonna Love You (07.03)
02. Weekend Girl (06.24)
03. Just The Way You Like It (08.41)
04. Break Up (06.33)
05. Feeling (06.41)
06. I Don't Want Nobody Else (06.03)
07. Body Break (03.47)

Exact Audio Copy V1.0 beta 3 from 29. August 2011

EAC extraction logfile from 24. March 2014, 16:29

The S.O.S. Band / Just The Way You Like It

Used drive : PIONEER BD-RW BDR-207D Adapter: 4 ID: 0

Read mode : Secure
Utilize accurate stream : Yes
Defeat audio cache : Yes
Make use of C2 pointers : No

Read offset correction : 667
Overread into Lead-In and Lead-Out : No
Fill up missing offset samples with silence : Yes
Delete leading and trailing silent blocks : No
Null samples used in CRC calculations : Yes
Used interface : Native Win32 interface for Win NT & 2000
Gap handling : Appended to previous track

Used output format : User Defined Encoder
Selected bitrate : 1024 kBit/s
Quality : High
Add ID3 tag : No
Command line compressor : C:\Program Files (x86)\Exact Audio Copy\Flac\flac.exe
Additional command line options : -8 -V -T "artist=%artist%" -T "title=%title%" -T "album=%albumtitle%" -T "date=%year%" -T "tracknumber=%tracknr%" -T "genre=%genre%" %source%


TOC of the extracted CD

Track | Start | Length | Start sector | End sector
––––––––––––––––––––––––––––-
1 | 0:00.00 | 7:03.13 | 0 | 31737
2 | 7:03.13 | 6:24.72 | 31738 | 60609
3 | 13:28.10 | 8:41.50 | 60610 | 99734
4 | 22:09.60 | 6:33.35 | 99735 | 129244
5 | 28:43.20 | 6:41.60 | 129245 | 159379
6 | 35:25.05 | 6:03.52 | 159380 | 186656
7 | 41:28.57 | 3:47.40 | 186657 | 203721


Track 1

Filename H:\!!!!!!!!!!!!!!!!!!! EAC RIPS\The S.O.S. Band - The Tabu Anthology (2014)\CD5 - Just The Way You Like It\01 - No One's Gonna Love You.wav

Pre-gap length 0:00:02.00

Peak level 96.6 %
Extraction speed 5.1 X
Track quality 100.0 %
Test CRC 3FEBEF73
Copy CRC 3FEBEF73
Track not present in AccurateRip database
Copy OK

Track 2

Filename H:\!!!!!!!!!!!!!!!!!!! EAC RIPS\The S.O.S. Band - The Tabu Anthology (2014)\CD5 - Just The Way You Like It\02 - Weekend Girl.wav

Peak level 96.6 %
Extraction speed 5.8 X
Track quality 100.0 %
Test CRC E2059925
Copy CRC E2059925
Track not present in AccurateRip database
Copy OK

Track 3

Filename H:\!!!!!!!!!!!!!!!!!!! EAC RIPS\The S.O.S. Band - The Tabu Anthology (2014)\CD5 - Just The Way You Like It\03 - Just The Way You Like It.wav

Peak level 96.6 %
Extraction speed 6.6 X
Track quality 100.0 %
Test CRC CD3697C6
Copy CRC CD3697C6
Track not present in AccurateRip database
Copy OK

Track 4

Filename H:\!!!!!!!!!!!!!!!!!!! EAC RIPS\The S.O.S. Band - The Tabu Anthology (2014)\CD5 - Just The Way You Like It\04 - Break Up.wav

Peak level 96.6 %
Extraction speed 6.9 X
Track quality 100.0 %
Test CRC C6846C7F
Copy CRC C6846C7F
Track not present in AccurateRip database
Copy OK

Track 5

Filename H:\!!!!!!!!!!!!!!!!!!! EAC RIPS\The S.O.S. Band - The Tabu Anthology (2014)\CD5 - Just The Way You Like It\05 - Feeling.wav

Peak level 96.6 %
Extraction speed 7.5 X
Track quality 100.0 %
Test CRC A0B5C256
Copy CRC A0B5C256
Track not present in AccurateRip database
Copy OK

Track 6

Filename H:\!!!!!!!!!!!!!!!!!!! EAC RIPS\The S.O.S. Band - The Tabu Anthology (2014)\CD5 - Just The Way You Like It\06 - I Don't Want Nobody Else.wav

Peak level 96.6 %
Extraction speed 7.8 X
Track quality 100.0 %
Test CRC AF8F0B4B
Copy CRC AF8F0B4B
Track not present in AccurateRip database
Copy OK

Track 7

Filename H:\!!!!!!!!!!!!!!!!!!! EAC RIPS\The S.O.S. Band - The Tabu Anthology (2014)\CD5 - Just The Way You Like It\07 - Body Break.wav

Peak level 96.6 %
Extraction speed 7.5 X
Track quality 100.0 %
Test CRC 906FD8EA
Copy CRC 906FD8EA
Track not present in AccurateRip database
Copy OK


None of the tracks are present in the AccurateRip database

No errors occurred

End of status report

–– CUETools DB Plugin V2.1.3

[CTDB TOCID: tPNqqCPZ3_TUOdcKD.PGL35UXko-] disk not present in database, Submit result: tPNqqCPZ3_TUOdcKD.PGL35UXko- has been uploaded


==== Log checksum 990282AD1694A97CF84FCF97FF43FC2C85E469FC9C7E2AFC6C3DE191B19B6914 ====

––––––––––––––––––––––––––––––––––––––––
Analyzed: The S.O.S. Band / Just The Way You Like It
––––––––––––––––––––––––––––––––––––––––

DR Peak RMS Duration Track
––––––––––––––––––––––––––––––––––––––––
DR11 -0.30 dB -12.93 dB 7:03 01-No One's Gonna Love You
DR10 -0.30 dB -12.85 dB 6:25 02-Weekend Girl
DR9 -0.30 dB -11.29 dB 8:42 03-Just The Way You Like It
DR9 -0.30 dB -10.50 dB 6:33 04-Break Up
DR10 -0.30 dB -12.22 dB 6:42 05-Feeling
DR10 -0.30 dB -12.39 dB 6:04 06-I Don't Want Nobody Else
DR11 -0.30 dB -12.20 dB 3:48 07-Body Break
––––––––––––––––––––––––––––––––––––––––

Number of tracks: 7
Official DR value: DR10

Samplerate: 44100 Hz
Channels: 2
Bits per sample: 16
Bitrate: 967 kbps
Codec: FLAC
================================================================================


The S.O.S. Band - The Tabu Anthology [10CD Box Set] (2014)

CD6: The S.O.S. Band - Sands Of Time (1986)
R&B, Soul/Funk, Electronic, Disco | EAC Rip | FLAC, Tracks+CUE+LOG+Covers (JPEG) | 39:19 Min | 280,03 Mb
Label: Tabu/Demon Music Group Ltd. (EU) | Released: 2014-03-24 (1986-04-09)

"Sands of Time" is the sixth album released by the R&B band The S.O.S. Band on the Tabu label in April 1986. It was produced by Jimmy Jam and Terry Lewis. This would be the last album to feature original lead singer Mary Davis before she left the group to embark on a solo career. The album peaked at #4 on the R&B albums chart. It also reached #44 on the Pop albums chart. The lead single, "The Finest", reached the Billboard R&B Top Ten, peaking at #2. The single also peaked at #44 on the Billboard Hot 100, #8 on the Hot Dance Club Play chart and #17 on the UK Singles Chart. Three follow-up singles, "Borrowed Love", "Even When You Sleep", and "No Lies" also reached the R&B chart, peaking at #14, #34, and #43, respectively. "No Lies" peaked at #2 on the Hot Dance Club Play chart.
~Wikipedia


Tracklist:

01. Even When You Sleep (04.08)
02. Sands Of Time (04.26)
03. Borrowed Love (05.26)
04. Nothing But The Best (04.45)
05. The Finest (06.07)
06. No Lies (04.58)
07. Two Time Lover (04.30)
08. Do You Still Want To? (04.23)
09. Sands Of Time (Reprise) (00.32)

Exact Audio Copy V1.0 beta 3 from 29. August 2011

EAC extraction logfile from 24. March 2014, 16:45

The S.O.S. Band / Sands Of Time

Used drive : PIONEER BD-RW BDR-207D Adapter: 4 ID: 0

Read mode : Secure
Utilize accurate stream : Yes
Defeat audio cache : Yes
Make use of C2 pointers : No

Read offset correction : 667
Overread into Lead-In and Lead-Out : No
Fill up missing offset samples with silence : Yes
Delete leading and trailing silent blocks : No
Null samples used in CRC calculations : Yes
Used interface : Native Win32 interface for Win NT & 2000
Gap handling : Appended to previous track

Used output format : User Defined Encoder
Selected bitrate : 1024 kBit/s
Quality : High
Add ID3 tag : No
Command line compressor : C:\Program Files (x86)\Exact Audio Copy\Flac\flac.exe
Additional command line options : -8 -V -T "artist=%artist%" -T "title=%title%" -T "album=%albumtitle%" -T "date=%year%" -T "tracknumber=%tracknr%" -T "genre=%genre%" %source%


TOC of the extracted CD

Track | Start | Length | Start sector | End sector
––––––––––––––––––––––––––––-
1 | 0:00.00 | 4:08.13 | 0 | 18612
2 | 4:08.13 | 4:26.25 | 18613 | 38587
3 | 8:34.38 | 5:26.32 | 38588 | 63069
4 | 14:00.70 | 4:45.43 | 63070 | 84487
5 | 18:46.38 | 6:07.40 | 84488 | 112052
6 | 24:54.03 | 4:58.10 | 112053 | 134412
7 | 29:52.13 | 4:30.15 | 134413 | 154677
8 | 34:22.28 | 4:23.50 | 154678 | 174452
9 | 38:46.03 | 0:32.37 | 174453 | 176889


Track 1

Filename H:\!!!!!!!!!!!!!!!!!!! EAC RIPS\The S.O.S. Band - The Tabu Anthology (2014)\CD6 - Sands Of Time\01 - Even When You Sleep.wav

Pre-gap length 0:00:02.00

Peak level 96.6 %
Extraction speed 4.6 X
Track quality 100.0 %
Test CRC 46B8908E
Copy CRC 46B8908E
Track not present in AccurateRip database
Copy OK

Track 2

Filename H:\!!!!!!!!!!!!!!!!!!! EAC RIPS\The S.O.S. Band - The Tabu Anthology (2014)\CD6 - Sands Of Time\02 - Sand Of Time.wav

Peak level 96.6 %
Extraction speed 5.1 X
Track quality 100.0 %
Test CRC A50AB002
Copy CRC A50AB002
Track not present in AccurateRip database
Copy OK

Track 3

Filename H:\!!!!!!!!!!!!!!!!!!! EAC RIPS\The S.O.S. Band - The Tabu Anthology (2014)\CD6 - Sands Of Time\03 - Borrowed Love.wav

Peak level 96.6 %
Extraction speed 5.7 X
Track quality 100.0 %
Test CRC C8FCE4E2
Copy CRC C8FCE4E2
Track not present in AccurateRip database
Copy OK

Track 4

Filename H:\!!!!!!!!!!!!!!!!!!! EAC RIPS\The S.O.S. Band - The Tabu Anthology (2014)\CD6 - Sands Of Time\04 - Nothing But The Best.wav

Peak level 96.6 %
Extraction speed 6.1 X
Track quality 100.0 %
Test CRC A8595FF8
Copy CRC A8595FF8
Track not present in AccurateRip database
Copy OK

Track 5

Filename H:\!!!!!!!!!!!!!!!!!!! EAC RIPS\The S.O.S. Band - The Tabu Anthology (2014)\CD6 - Sands Of Time\05 - The Finest.wav

Peak level 96.6 %
Extraction speed 6.1 X
Track quality 99.9 %
Test CRC AE2BB711
Copy CRC AE2BB711
Track not present in AccurateRip database
Copy OK

Track 6

Filename H:\!!!!!!!!!!!!!!!!!!! EAC RIPS\The S.O.S. Band - The Tabu Anthology (2014)\CD6 - Sands Of Time\06 - No Lies.wav

Peak level 96.6 %
Extraction speed 6.3 X
Track quality 99.9 %
Test CRC 61D2DD8F
Copy CRC 61D2DD8F
Track not present in AccurateRip database
Copy OK

Track 7

Filename H:\!!!!!!!!!!!!!!!!!!! EAC RIPS\The S.O.S. Band - The Tabu Anthology (2014)\CD6 - Sands Of Time\07 - Two Time Lover.wav

Peak level 96.6 %
Extraction speed 7.2 X
Track quality 100.0 %
Test CRC B399DCB2
Copy CRC B399DCB2
Track not present in AccurateRip database
Copy OK

Track 8

Filename H:\!!!!!!!!!!!!!!!!!!! EAC RIPS\The S.O.S. Band - The Tabu Anthology (2014)\CD6 - Sands Of Time\08 - Do You Still Want To.wav

Peak level 96.6 %
Extraction speed 7.4 X
Track quality 100.0 %
Test CRC 18B2FD11
Copy CRC 18B2FD11
Track not present in AccurateRip database
Copy OK

Track 9

Filename H:\!!!!!!!!!!!!!!!!!!! EAC RIPS\The S.O.S. Band - The Tabu Anthology (2014)\CD6 - Sands Of Time\09 - Sands Of Time (Reprise).wav

Peak level 79.6 %
Extraction speed 3.9 X
Track quality 100.0 %
Test CRC 7440B51B
Copy CRC 7440B51B
Track not present in AccurateRip database
Copy OK


None of the tracks are present in the AccurateRip database

No errors occurred

End of status report

–– CUETools DB Plugin V2.1.3

[CTDB TOCID: wKFmhPJXR73ROS6K4vDCsvZEZps-] disk not present in database, Submit result: wKFmhPJXR73ROS6K4vDCsvZEZps- has been uploaded


==== Log checksum DAAB6C741DBB2BF92DDE756AC992EF0AA92FAB07738CC3DAD9DABFF9279E545B ====

––––––––––––––––––––––––––––––––––––––––
Analyzed: The S.O.S. Band / Sands Of Time
––––––––––––––––––––––––––––––––––––––––

DR Peak RMS Duration Track
––––––––––––––––––––––––––––––––––––––––
DR10 -0.30 dB -11.53 dB 4:08 01-Even When You Sleep
DR10 -0.30 dB -12.68 dB 4:26 02-Sand Of Time
DR9 -0.30 dB -11.19 dB 5:26 03-Borrowed Love
DR10 -0.30 dB -11.63 dB 4:46 04-Nothing But The Best
DR10 -0.30 dB -11.89 dB 6:08 05-The Finest
DR8 -0.30 dB -10.00 dB 4:58 06-No Lies
DR10 -0.30 dB -11.78 dB 4:30 07-Two Time Lover
DR9 -0.30 dB -10.48 dB 4:24 08-Do You Still Want To?
DR13 -1.98 dB -18.53 dB 0:32 09-Sands Of Time (Reprise)
––––––––––––––––––––––––––––––––––––––––

Number of tracks: 9
Official DR value: DR10

Samplerate: 44100 Hz
Channels: 2
Bits per sample: 16
Bitrate: 750 kbps
Codec: FLAC
================================================================================


The S.O.S. Band - The Tabu Anthology [10CD Box Set] (2014)

CD7: The S.O.S. Band - Diamonds In The Raw (1989)
R&B, Soul/Funk, Electronic, Hip Hop | EAC Rip | FLAC, Tracks+CUE+LOG+Covers (JPEG) | 49:14 Min | 369,84 Mb
Label: Tabu/Demon Music Group Ltd. (EU) | Released: 2014-03-24 (1989)

"Diamonds in the Raw" is the 7th studio album of The S.O.S. Band, released by Tabu Records in 1989. This album marked the absence of lead singer Mary Davis, who left in 1987 to pursue a solo career. Chandra Currelley became the lead singer. Tragedy struck the band due to the untimely death of saxophonist Billy Ellis shortly before the album's completion.
~Wikipedia


Tracklist:

01. I'm Still Missing Your Love (04.26)
02. Goldmine (05.46)
03. Do You Love Me? (05.10)
04. Men Don't Cry (06.01)
05. One Lover (04.28)
06. Secret Wish (06.13)
07. Hold Out (05.14)
08. Get Out Of My Life (04.12)
09. Crossfire (Parts I & II) (07.22)

Exact Audio Copy V1.0 beta 3 from 29. August 2011

EAC extraction logfile from 24. March 2014, 17:05

The S.O.S. Band / Diamonds In The Raw

Used drive : PIONEER BD-RW BDR-207D Adapter: 4 ID: 0

Read mode : Secure
Utilize accurate stream : Yes
Defeat audio cache : Yes
Make use of C2 pointers : No

Read offset correction : 667
Overread into Lead-In and Lead-Out : No
Fill up missing offset samples with silence : Yes
Delete leading and trailing silent blocks : No
Null samples used in CRC calculations : Yes
Used interface : Native Win32 interface for Win NT & 2000
Gap handling : Appended to previous track

Used output format : User Defined Encoder
Selected bitrate : 1024 kBit/s
Quality : High
Add ID3 tag : No
Command line compressor : C:\Program Files (x86)\Exact Audio Copy\Flac\flac.exe
Additional command line options : -8 -V -T "artist=%artist%" -T "title=%title%" -T "album=%albumtitle%" -T "date=%year%" -T "tracknumber=%tracknr%" -T "genre=%genre%" %source%


TOC of the extracted CD

Track | Start | Length | Start sector | End sector
––––––––––––––––––––––––––––-
1 | 0:00.00 | 4:28.35 | 0 | 20134
2 | 4:28.35 | 5:48.40 | 20135 | 46274
3 | 10:17.00 | 5:12.14 | 46275 | 69688
4 | 15:29.14 | 6:03.44 | 69689 | 96957
5 | 21:32.58 | 4:30.71 | 96958 | 117278
6 | 26:03.54 | 6:15.72 | 117279 | 145475
7 | 32:19.51 | 5:16.64 | 145476 | 169239
8 | 37:36.40 | 4:14.32 | 169240 | 188321
9 | 41:50.72 | 7:22.71 | 188322 | 221542


Track 1

Filename H:\!!!!!!!!!!!!!!!!!!! EAC RIPS\The S.O.S. Band - The Tabu Anthology (2014)\CD7 - Diamonds In The Raw\01 - I'm Still Missing Your Love.wav

Pre-gap length 0:00:02.00

Peak level 96.6 %
Extraction speed 4.7 X
Track quality 100.0 %
Test CRC 6F367F78
Copy CRC 6F367F78
Track not present in AccurateRip database
Copy OK

Track 2

Filename H:\!!!!!!!!!!!!!!!!!!! EAC RIPS\The S.O.S. Band - The Tabu Anthology (2014)\CD7 - Diamonds In The Raw\02 - Goldmine.wav

Pre-gap length 0:00:02.00

Peak level 96.6 %
Extraction speed 5.4 X
Track quality 100.0 %
Test CRC 8CA6F1F7
Copy CRC 8CA6F1F7
Track not present in AccurateRip database
Copy OK

Track 3

Filename H:\!!!!!!!!!!!!!!!!!!! EAC RIPS\The S.O.S. Band - The Tabu Anthology (2014)\CD7 - Diamonds In The Raw\03 - Do You Love Me.wav

Pre-gap length 0:00:02.00

Peak level 96.6 %
Extraction speed 5.9 X
Track quality 100.0 %
Test CRC 6562FC46
Copy CRC 6562FC46
Track not present in AccurateRip database
Copy OK

Track 4

Filename H:\!!!!!!!!!!!!!!!!!!! EAC RIPS\The S.O.S. Band - The Tabu Anthology (2014)\CD7 - Diamonds In The Raw\04 - Men Don't Cry.wav

Pre-gap length 0:00:02.00

Peak level 96.6 %
Extraction speed 6.4 X
Track quality 100.0 %
Test CRC D2F1B2F7
Copy CRC D2F1B2F7
Track not present in AccurateRip database
Copy OK

Track 5

Filename H:\!!!!!!!!!!!!!!!!!!! EAC RIPS\The S.O.S. Band - The Tabu Anthology (2014)\CD7 - Diamonds In The Raw\05 - One Lover.wav

Pre-gap length 0:00:02.00

Peak level 96.6 %
Extraction speed 6.6 X
Track quality 100.0 %
Test CRC C9F39AB5
Copy CRC C9F39AB5
Track not present in AccurateRip database
Copy OK

Track 6

Filename H:\!!!!!!!!!!!!!!!!!!! EAC RIPS\The S.O.S. Band - The Tabu Anthology (2014)\CD7 - Diamonds In The Raw\06 - Secret Wish.wav

Pre-gap length 0:00:02.00

Peak level 96.6 %
Extraction speed 7.2 X
Track quality 100.0 %
Test CRC BEB2ECDD
Copy CRC BEB2ECDD
Track not present in AccurateRip database
Copy OK

Track 7

Filename H:\!!!!!!!!!!!!!!!!!!! EAC RIPS\The S.O.S. Band - The Tabu Anthology (2014)\CD7 - Diamonds In The Raw\07 - Hold Out.wav

Pre-gap length 0:00:02.00

Peak level 96.6 %
Extraction speed 7.5 X
Track quality 100.0 %
Test CRC E040E115
Copy CRC E040E115
Track not present in AccurateRip database
Copy OK

Track 8

Filename H:\!!!!!!!!!!!!!!!!!!! EAC RIPS\The S.O.S. Band - The Tabu Anthology (2014)\CD7 - Diamonds In The Raw\08 - Get Out Of My Life.wav

Pre-gap length 0:00:02.00

Peak level 96.6 %
Extraction speed 7.5 X
Track quality 100.0 %
Test CRC 184C8BE7
Copy CRC 184C8BE7
Track not present in AccurateRip database
Copy OK

Track 9

Filename H:\!!!!!!!!!!!!!!!!!!! EAC RIPS\The S.O.S. Band - The Tabu Anthology (2014)\CD7 - Diamonds In The Raw\09 - Crossfire (Parts I & II).wav

Pre-gap length 0:00:02.00

Peak level 96.6 %
Extraction speed 8.2 X
Track quality 100.0 %
Test CRC 63B5DA99
Copy CRC 63B5DA99
Track not present in AccurateRip database
Copy OK


None of the tracks are present in the AccurateRip database

No errors occurred

End of status report

–– CUETools DB Plugin V2.1.3

[CTDB TOCID: yJlyqBFubCNOMNzzreFe5eDo.cA-] disk not present in database, Submit result: yJlyqBFubCNOMNzzreFe5eDo.cA- has been uploaded


==== Log checksum 7FC541BE1DAED47043FD252A97D26D85F992916A4152627C0504703EB2B105FE ====

––––––––––––––––––––––––––––––––––––––––
Analyzed: The S.O.S. Band / Diamonds In The Raw
––––––––––––––––––––––––––––––––––––––––

DR Peak RMS Duration Track
––––––––––––––––––––––––––––––––––––––––
DR10 -0.30 dB -11.71 dB 4:28 01-I'm Still Missing Your Love
DR9 -0.30 dB -10.94 dB 5:49 02-Goldmine
DR9 -0.30 dB -10.13 dB 5:12 03-Do You Love Me?
DR10 -0.30 dB -11.64 dB 6:04 04-Men Don't Cry
DR10 -0.30 dB -11.48 dB 4:31 05-One Lover
DR10 -0.30 dB -11.78 dB 6:16 06-Secret Wish
DR10 -0.30 dB -12.46 dB 5:17 07-Hold Out
DR10 -0.30 dB -12.18 dB 4:14 08-Get Out Of My Life
DR10 -0.30 dB -11.24 dB 7:23 09-Crossfire (Parts I & II)
––––––––––––––––––––––––––––––––––––––––

Number of tracks: 9
Official DR value: DR10

Samplerate: 44100 Hz
Channels: 2
Bits per sample: 16
Bitrate: 977 kbps
Codec: FLAC
================================================================================


The S.O.S. Band - The Tabu Anthology [10CD Box Set] (2014)

CD8: The S.O.S. Band - One Of Many Nights (1991)
R&B, Soul/Funk, Electronic, Hip Hop | EAC Rip | FLAC, Tracks+CUE+LOG+Covers (JPEG) | 55:29 Min | 419,05 Mb
Label: Tabu/Demon Music Group Ltd. (EU) | Released: 2014-03-24 (1991-09-24)

"One of Many Nights" is the 8th and last studio album of The S.O.S. Band. This album was released by Tabu Records on September 24, 1991. One of Many Nights is notable for the songs "Are You Ready", "Get Hyped on This" and "Someone I Can Love". The album contained the first recorded appearances of rapper Kurupt before he signed a recording contract with Death Row Records.
~Wikipedia


Tracklist:

01. I Wanna Be The One (05.26)
02. Sometimes I Wonder (04.49)
03. Broken Promises (04.59)
04. How Can We Ever Get Back Together (05.40)
05. Are You Ready (04.54)
06. Can't Explain (05.27)
07. Someone I Can Love (05.34)
08. Get Hyped On This (05.37)
09. I Only Want You (05.24)
10. One Of Many Nights (07.16)

Exact Audio Copy V1.0 beta 3 from 29. August 2011

EAC extraction logfile from 24. March 2014, 17:27

The S.O.S. Band / One Of Many Nights

Used drive : PIONEER BD-RW BDR-207D Adapter: 4 ID: 0

Read mode : Secure
Utilize accurate stream : Yes
Defeat audio cache : Yes
Make use of C2 pointers : No

Read offset correction : 667
Overread into Lead-In and Lead-Out : No
Fill up missing offset samples with silence : Yes
Delete leading and trailing silent blocks : No
Null samples used in CRC calculations : Yes
Used interface : Native Win32 interface for Win NT & 2000
Gap handling : Appended to previous track

Used output format : User Defined Encoder
Selected bitrate : 1024 kBit/s
Quality : High
Add ID3 tag : No
Command line compressor : C:\Program Files (x86)\Exact Audio Copy\Flac\flac.exe
Additional command line options : -8 -V -T "artist=%artist%" -T "title=%title%" -T "album=%albumtitle%" -T "date=%year%" -T "tracknumber=%tracknr%" -T "genre=%genre%" %source%


TOC of the extracted CD

Track | Start | Length | Start sector | End sector
––––––––––––––––––––––––––––-
1 | 0:00.00 | 5:28.37 | 0 | 24636
2 | 5:28.37 | 4:51.30 | 24637 | 46491
3 | 10:19.67 | 5:01.67 | 46492 | 69133
4 | 15:21.59 | 5:42.20 | 69134 | 94803
5 | 21:04.04 | 4:56.11 | 94804 | 117014
6 | 26:00.15 | 5:29.42 | 117015 | 141731
7 | 31:29.57 | 5:36.45 | 141732 | 166976
8 | 37:06.27 | 5:39.62 | 166977 | 192463
9 | 42:46.14 | 5:26.12 | 192464 | 216925
10 | 48:12.26 | 7:16.73 | 216926 | 249698


Track 1

Filename H:\!!!!!!!!!!!!!!!!!!! EAC RIPS\The S.O.S. Band - The Tabu Anthology (2014)\CD8 - One Of Many Nights\01 - I Wanna Be The One.wav

Pre-gap length 0:00:02.00

Peak level 98.7 %
Extraction speed 4.8 X
Track quality 100.0 %
Test CRC 14617C97
Copy CRC 14617C97
Track not present in AccurateRip database
Copy OK

Track 2

Filename H:\!!!!!!!!!!!!!!!!!!! EAC RIPS\The S.O.S. Band - The Tabu Anthology (2014)\CD8 - One Of Many Nights\02 - Sometimes I Wonder.wav

Pre-gap length 0:00:02.00

Peak level 98.8 %
Extraction speed 5.4 X
Track quality 100.0 %
Test CRC 9F84AC8D
Copy CRC 9F84AC8D
Track not present in AccurateRip database
Copy OK

Track 3

Filename H:\!!!!!!!!!!!!!!!!!!! EAC RIPS\The S.O.S. Band - The Tabu Anthology (2014)\CD8 - One Of Many Nights\03 - Broken Promises.wav

Pre-gap length 0:00:02.00

Peak level 99.4 %
Extraction speed 5.8 X
Track quality 100.0 %
Test CRC 3242DFFF
Copy CRC 3242DFFF
Track not present in AccurateRip database
Copy OK

Track 4

Filename H:\!!!!!!!!!!!!!!!!!!! EAC RIPS\The S.O.S. Band - The Tabu Anthology (2014)\CD8 - One Of Many Nights\04 - How Can We Ever Get Back Together.wav

Pre-gap length 0:00:02.00

Peak level 98.7 %
Extraction speed 5.8 X
Track quality 99.9 %
Test CRC 585039EB
Copy CRC 585039EB
Track not present in AccurateRip database
Copy OK

Track 5

Filename H:\!!!!!!!!!!!!!!!!!!! EAC RIPS\The S.O.S. Band - The Tabu Anthology (2014)\CD8 - One Of Many Nights\05 - Are You Ready.wav

Pre-gap length 0:00:02.00

Peak level 99.0 %
Extraction speed 6.0 X
Track quality 99.9 %
Test CRC F03F44CD
Copy CRC F03F44CD
Track not present in AccurateRip database
Copy OK

Track 6

Filename H:\!!!!!!!!!!!!!!!!!!! EAC RIPS\The S.O.S. Band - The Tabu Anthology (2014)\CD8 - One Of Many Nights\06 - Can't Explain.wav

Pre-gap length 0:00:02.00

Peak level 98.7 %
Extraction speed 7.1 X
Track quality 100.0 %
Test CRC E737CAA2
Copy CRC E737CAA2
Track not present in AccurateRip database
Copy OK

Track 7

Filename H:\!!!!!!!!!!!!!!!!!!! EAC RIPS\The S.O.S. Band - The Tabu Anthology (2014)\CD8 - One Of Many Nights\07 - Someone I Can Love.wav

Pre-gap length 0:00:02.00

Peak level 98.6 %
Extraction speed 7.5 X
Track quality 100.0 %
Test CRC 58F43B10
Copy CRC 58F43B10
Track not present in AccurateRip database
Copy OK

Track 8

Filename H:\!!!!!!!!!!!!!!!!!!! EAC RIPS\The S.O.S. Band - The Tabu Anthology (2014)\CD8 - One Of Many Nights\08 - Get Hyped On this.wav

Pre-gap length 0:00:02.00

Peak level 98.7 %
Extraction speed 7.7 X
Track quality 100.0 %
Test CRC 30283E62
Copy CRC 30283E62
Track not present in AccurateRip database
Copy OK

Track 9

Filename H:\!!!!!!!!!!!!!!!!!!! EAC RIPS\The S.O.S. Band - The Tabu Anthology (2014)\CD8 - One Of Many Nights\09 - I Only Want You.wav

Pre-gap length 0:00:02.00

Peak level 98.8 %
Extraction speed 8.0 X
Track quality 100.0 %
Test CRC 18285004
Copy CRC 18285004
Track not present in AccurateRip database
Copy OK

Track 10

Filename H:\!!!!!!!!!!!!!!!!!!! EAC RIPS\The S.O.S. Band - The Tabu Anthology (2014)\CD8 - One Of Many Nights\10 - One Of Many Nights.wav

Pre-gap length 0:00:02.00

Peak level 98.6 %
Extraction speed 8.5 X
Track quality 100.0 %
Test CRC D898DFA8
Copy CRC D898DFA8
Track not present in AccurateRip database
Copy OK


None of the tracks are present in the AccurateRip database

No errors occurred

End of status report

–– CUETools DB Plugin V2.1.3

[CTDB TOCID: lP2x8854I75BOtWYo8GWApKPii8-] disk not present in database, Submit result: lP2x8854I75BOtWYo8GWApKPii8- has been uploaded


==== Log checksum DC9FFC0585E85DFC10F2200E8F90CDDB173AA3BB043B04F206161AB58A8A723B ====

––––––––––––––––––––––––––––––––––––––––
Analyzed: The S.O.S. Band / One Of Many Nights
––––––––––––––––––––––––––––––––––––––––

DR Peak RMS Duration Track
––––––––––––––––––––––––––––––––––––––––
DR9 -0.11 dB -10.52 dB 5:28 01-I Wanna Be The One
DR8 -0.10 dB -9.50 dB 4:51 02-Sometimes I Wonder
DR8 -0.04 dB -10.84 dB 5:02 03-Broken Promises
DR9 -0.11 dB -11.23 dB 5:42 04-How Can We Ever Get Back Together
DR9 -0.09 dB -10.22 dB 4:56 05-Are You Ready
DR10 -0.11 dB -11.23 dB 5:30 06-Can't Explain
DR10 -0.11 dB -11.30 dB 5:37 07-Someone I Can Love
DR7 -0.11 dB -9.42 dB 5:40 08-Get Hyped On this
DR8 -0.10 dB -10.46 dB 5:26 09-I Only Want You
DR9 -0.12 dB -11.07 dB 7:17 10-One Of Many Nights
––––––––––––––––––––––––––––––––––––––––

Number of tracks: 10
Official DR value: DR9

Samplerate: 44100 Hz
Channels: 2
Bits per sample: 16
Bitrate: 985 kbps
Codec: FLAC
================================================================================


The S.O.S. Band - The Tabu Anthology [10CD Box Set] (2014)

CD9: The S.O.S. Band - The 7" Singles (2014)
R&B, Soul/Funk, Electronic, Disco | EAC Rip | FLAC, Tracks+CUE+LOG+Covers (JPEG) | 78:36 Min | 569,70 Mb
Label: Tabu/Demon Music Group Ltd. (EU) | Released: 2014-03-24


Tracklist:

01. S.O.S. (Dit Dit Dit Dash Dash Dash Dit Dit Dit) (Edit) (04.07)
02. Take Your Time (Do It Right) (Part 1) (03.51)
03. What's Wrong With Our Love Affair? (03.51)
04. Do It Now (Part 1) (03.20)
05. High Hopes (05.31)
06. Tell Me If You Still Care (05.01)
07. Just Be Good To Me (05.39)
08. For Your Love (03.56)
09. Break Up (Part 1) (04.21)
10. Weekend Girl (04.03)
11. Just The Way You Like It (04.52)
12. No One's Gonna Love You (03.33)
13. The Finest (04.42)
14. Even When You Sleep (04.07)
15. Borrowed Love (04.24)
16. No Lies (03.41)
17. I'm Still Missing Your Love (04.26)
18. Secret Wish (04.29)

Exact Audio Copy V1.0 beta 3 from 29. August 2011

EAC extraction logfile from 24. March 2014, 20:29

The S.O.S. Band / The 7'' Singles

Used drive : PIONEER BD-RW BDR-207D Adapter: 4 ID: 0

Read mode : Secure
Utilize accurate stream : Yes
Defeat audio cache : Yes
Make use of C2 pointers : No

Read offset correction : 667
Overread into Lead-In and Lead-Out : No
Fill up missing offset samples with silence : Yes
Delete leading and trailing silent blocks : No
Null samples used in CRC calculations : Yes
Used interface : Native Win32 interface for Win NT & 2000
Gap handling : Appended to previous track

Used output format : User Defined Encoder
Selected bitrate : 1024 kBit/s
Quality : High
Add ID3 tag : No
Command line compressor : C:\Program Files (x86)\Exact Audio Copy\Flac\flac.exe
Additional command line options : -8 -V -T "artist=%artist%" -T "title=%title%" -T "album=%albumtitle%" -T "date=%year%" -T "tracknumber=%tracknr%" -T "genre=%genre%" %source%


TOC of the extracted CD

Track | Start | Length | Start sector | End sector
––––––––––––––––––––––––––––-
1 | 0:00.00 | 4:09.27 | 0 | 18701
2 | 4:09.27 | 3:53.64 | 18702 | 36240
3 | 8:03.16 | 3:53.45 | 36241 | 53760
4 | 11:56.61 | 3:22.13 | 53761 | 68923
5 | 15:18.74 | 5:33.51 | 68924 | 93949
6 | 20:52.50 | 5:03.34 | 93950 | 116708
7 | 25:56.09 | 5:41.36 | 116709 | 142319
8 | 31:37.45 | 3:58.03 | 142320 | 160172
9 | 35:35.48 | 4:23.21 | 160173 | 179918
10 | 39:58.69 | 4:05.14 | 179919 | 198307
11 | 44:04.08 | 4:54.28 | 198308 | 220385
12 | 48:58.36 | 3:35.14 | 220386 | 236524
13 | 52:33.50 | 4:44.27 | 236525 | 257851
14 | 57:18.02 | 4:09.54 | 257852 | 276580
15 | 61:27.56 | 4:26.67 | 276581 | 296597
16 | 65:54.48 | 3:43.63 | 296598 | 313385
17 | 69:38.36 | 4:28.35 | 313386 | 333520
18 | 74:06.71 | 4:29.11 | 333521 | 353706


Track 1

Filename H:\!!!!!!!!!!!!!!!!!!! EAC RIPS\The S.O.S. Band - The Tabu Anthology (2014)\CD9 - The 7'' Singles\01 - S.O.S. (Dit Dit Dit Dash Dash Dash Dit Dit Dit) (Edit).wav

Pre-gap length 0:00:02.00

Peak level 96.6 %
Extraction speed 4.7 X
Track quality 100.0 %
Test CRC 49DF303F
Copy CRC 49DF303F
Track not present in AccurateRip database
Copy OK

Track 2

Filename H:\!!!!!!!!!!!!!!!!!!! EAC RIPS\The S.O.S. Band - The Tabu Anthology (2014)\CD9 - The 7'' Singles\02 - Take Your Time (Do It Right) (Part 1).wav

Pre-gap length 0:00:02.00

Peak level 96.6 %
Extraction speed 5.1 X
Track quality 100.0 %
Test CRC 9FA0BDED
Copy CRC 9FA0BDED
Track not present in AccurateRip database
Copy OK

Track 3

Filename H:\!!!!!!!!!!!!!!!!!!! EAC RIPS\The S.O.S. Band - The Tabu Anthology (2014)\CD9 - The 7'' Singles\03 - What's Wrong With Our Love Affair.wav

Pre-gap length 0:00:02.00

Peak level 96.6 %
Extraction speed 5.5 X
Track quality 100.0 %
Test CRC B03006B4
Copy CRC B03006B4
Track not present in AccurateRip database
Copy OK

Track 4

Filename H:\!!!!!!!!!!!!!!!!!!! EAC RIPS\The S.O.S. Band - The Tabu Anthology (2014)\CD9 - The 7'' Singles\04 - Do It Now (Part 1).wav

Pre-gap length 0:00:02.00

Peak level 96.6 %
Extraction speed 4.9 X
Track quality 99.9 %
Test CRC CD02A988
Copy CRC CD02A988
Track not present in AccurateRip database
Copy OK

Track 5

Filename H:\!!!!!!!!!!!!!!!!!!! EAC RIPS\The S.O.S. Band - The Tabu Anthology (2014)\CD9 - The 7'' Singles\05 - High Hopes.wav

Pre-gap length 0:00:02.00

Peak level 96.6 %
Extraction speed 6.3 X
Track quality 100.0 %
Test CRC 240121AE
Copy CRC 240121AE
Track not present in AccurateRip database
Copy OK

Track 6

Filename H:\!!!!!!!!!!!!!!!!!!! EAC RIPS\The S.O.S. Band - The Tabu Anthology (2014)\CD9 - The 7'' Singles\06 - Tell Me If You Still Care.wav

Pre-gap length 0:00:02.00

Peak level 100.0 %
Extraction speed 6.0 X
Track quality 99.9 %
Test CRC 80C19BC2
Copy CRC 80C19BC2
Track not present in AccurateRip database
Copy OK

Track 7

Filename H:\!!!!!!!!!!!!!!!!!!! EAC RIPS\The S.O.S. Band - The Tabu Anthology (2014)\CD9 - The 7'' Singles\07 - Just Be Good To Me.wav

Pre-gap length 0:00:02.00

Peak level 99.1 %
Extraction speed 7.1 X
Track quality 100.0 %
Test CRC 52917385
Copy CRC 52917385
Track not present in AccurateRip database
Copy OK

Track 8

Filename H:\!!!!!!!!!!!!!!!!!!! EAC RIPS\The S.O.S. Band - The Tabu Anthology (2014)\CD9 - The 7'' Singles\08 - For Your Love.wav

Pre-gap length 0:00:02.00

Peak level 96.6 %
Extraction speed 6.2 X
Track quality 99.9 %
Test CRC 56975E58
Copy CRC 56975E58
Track not present in AccurateRip database
Copy OK

Track 9

Filename H:\!!!!!!!!!!!!!!!!!!! EAC RIPS\The S.O.S. Band - The Tabu Anthology (2014)\CD9 - The 7'' Singles\09 - Break Up (Part 1).wav

Pre-gap length 0:00:02.00

Peak level 96.6 %
Extraction speed 6.5 X
Track quality 99.9 %
Test CRC D930CA58
Copy CRC D930CA58
Track not present in AccurateRip database
Copy OK

Track 10

Filename H:\!!!!!!!!!!!!!!!!!!! EAC RIPS\The S.O.S. Band - The Tabu Anthology (2014)\CD9 - The 7'' Singles\10 - Weekend Girl.wav

Pre-gap length 0:00:02.00

Peak level 93.3 %
Extraction speed 7.4 X
Track quality 100.0 %
Test CRC 9C4DEEAB
Copy CRC 9C4DEEAB
Track not present in AccurateRip database
Copy OK

Track 11

Filename H:\!!!!!!!!!!!!!!!!!!! EAC RIPS\The S.O.S. Band - The Tabu Anthology (2014)\CD9 - The 7'' Singles\11 - Just The Way You Like It.wav

Pre-gap length 0:00:02.00

Peak level 98.0 %
Extraction speed 7.8 X
Track quality 100.0 %
Test CRC 5B280153
Copy CRC 5B280153
Track not present in AccurateRip database
Copy OK

Track 12

Filename H:\!!!!!!!!!!!!!!!!!!! EAC RIPS\The S.O.S. Band - The Tabu Anthology (2014)\CD9 - The 7'' Singles\12 - No One's Gonna Love You.wav

Pre-gap length 0:00:02.00

Peak level 96.6 %
Extraction speed 7.6 X
Track quality 100.0 %
Test CRC A4C96332
Copy CRC A4C96332
Track not present in AccurateRip database
Copy OK

Track 13

Filename H:\!!!!!!!!!!!!!!!!!!! EAC RIPS\The S.O.S. Band - The Tabu Anthology (2014)\CD9 - The 7'' Singles\13 - The Finest.wav

Pre-gap length 0:00:02.00

Peak level 96.6 %
Extraction speed 8.1 X
Track quality 100.0 %
Test CRC 05A41D3C
Copy CRC 05A41D3C
Track not present in AccurateRip database
Copy OK

Track 14

Filename H:\!!!!!!!!!!!!!!!!!!! EAC RIPS\The S.O.S. Band - The Tabu Anthology (2014)\CD9 - The 7'' Singles\14 - Even When You Sleep.wav

Pre-gap length 0:00:02.00

Peak level 96.6 %
Extraction speed 8.2 X
Track quality 100.0 %
Test CRC EB9261E9
Copy CRC EB9261E9
Track not present in AccurateRip database
Copy OK

Track 15

Filename H:\!!!!!!!!!!!!!!!!!!! EAC RIPS\The S.O.S. Band - The Tabu Anthology (2014)\CD9 - The 7'' Singles\15 - Borrowed Love.wav

Pre-gap length 0:00:02.00

Peak level 96.6 %
Extraction speed 7.5 X
Track quality 99.9 %
Test CRC 59E64621
Copy CRC 59E64621
Track not present in AccurateRip database
Copy OK

Track 16

Filename H:\!!!!!!!!!!!!!!!!!!! EAC RIPS\The S.O.S. Band - The Tabu Anthology (2014)\CD9 - The 7'' Singles\16 - No Lies.wav

Pre-gap length 0:00:02.00

Peak level 96.6 %
Extraction speed 8.3 X
Track quality 100.0 %
Test CRC 1E44EF16
Copy CRC 1E44EF16
Track not present in AccurateRip database
Copy OK

Track 17

Filename H:\!!!!!!!!!!!!!!!!!!! EAC RIPS\The S.O.S. Band - The Tabu Anthology (2014)\CD9 - The 7'' Singles\17 - I'm Still Missing Your Love.wav

Pre-gap length 0:00:02.00

Peak level 96.6 %
Extraction speed 8.7 X
Track quality 100.0 %
Test CRC CF860485
Copy CRC CF860485
Track not present in AccurateRip database
Copy OK

Track 18

Filename H:\!!!!!!!!!!!!!!!!!!! EAC RIPS\The S.O.S. Band - The Tabu Anthology (2014)\CD9 - The 7'' Singles\18 - Secret Wish.wav

Pre-gap length 0:00:02.00

Peak level 96.6 %
Extraction speed 8.9 X
Track quality 100.0 %
Test CRC 77E14071
Copy CRC 77E14071
Track not present in AccurateRip database
Copy OK


None of the tracks are present in the AccurateRip database

No errors occurred

End of status report

–– CUETools DB Plugin V2.1.3

[CTDB TOCID: EonnpOE_y4.QCG_UG..85i2d8_g-] disk not present in database, Submit result: EonnpOE_y4.QCG_UG..85i2d8_g- has been uploaded


==== Log checksum 3F19E4439FE0874C2460A3D692E5A1AC291271FD0F55D17B8D07C4FF3167D9FC ====

––––––––––––––––––––––––––––––––––––––––
Analyzed: The S.O.S. Band / The 7'' Singles
––––––––––––––––––––––––––––––––––––––––

DR Peak RMS Duration Track
––––––––––––––––––––––––––––––––––––––––
DR10 -0.30 dB -12.10 dB 4:09 01-S.O.S. (Dit Dit Dit Dash Dash Dash Dit Dit Dit) (Edit)
DR10 -0.30 dB -11.82 dB 3:54 02-Take Your Time (Do It Right) (Part 1)
DR10 -0.30 dB -11.61 dB 3:54 03-What's Wrong With Our Love Affair?
DR11 -0.30 dB -12.89 dB 3:22 04-Do It Now (Part 1)
DR10 -0.30 dB -11.50 dB 5:34 05-High Hopes
DR12 0.00 dB -13.21 dB 5:03 06-Tell Me If You Still Care
DR10 -0.07 dB -11.74 dB 5:41 07-Just Be Good To Me
DR9 -0.30 dB -10.51 dB 3:58 08-For Your Love
DR10 -0.30 dB -11.40 dB 4:23 09-Break Up (Part 1)
DR10 -0.60 dB -12.91 dB 4:05 10-Weekend Girl
DR10 -0.17 dB -11.67 dB 4:54 11-Just The Way You Like It
DR11 -0.30 dB -12.60 dB 3:35 12-No One's Gonna Love You
DR9 -0.30 dB -10.10 dB 4:44 13-The Finest
DR9 -0.30 dB -11.16 dB 4:10 14-Even When You Sleep
DR10 -0.30 dB -11.48 dB 4:27 15-Borrowed Love
DR8 -0.30 dB -9.68 dB 3:44 16-No Lies
DR10 -0.30 dB -11.71 dB 4:28 17-I'm Still Missing Your Love
DR9 -0.30 dB -11.39 dB 4:29 18-Secret Wish
––––––––––––––––––––––––––––––––––––––––

Number of tracks: 18
Official DR value: DR10

Samplerate: 44100 Hz
Channels: 2
Bits per sample: 16
Bitrate: 1009 kbps
Codec: FLAC
================================================================================


The S.O.S. Band - The Tabu Anthology [10CD Box Set] (2014)

CD10: The S.O.S. Band - The 12" Mixes (2014)
R&B, Soul/Funk, Electronic, Disco | EAC Rip | FLAC, Tracks+CUE+LOG+Covers (JPEG) | 77:39 Min | 558,67 Mb
Label: Tabu/Demon Music Group Ltd. (EU) | Released: 2014-03-24


Tracklist:

01. S.O.S. (Dit Dit Dit Dash Dash Dash Dit Dit Dit) (Special Disco Mix) (07.39)
02. Take Your Time (Do It Right) (Long Version) (07.41)
03. Groovin' (That'S What We'Re Doin') (Special Version) (05.33)
04. Just Be Good To Me (12" Mix) (08.13)
05. Break Up (Part 1) (Remix) (06.31)
06. Just The Way You Like It (Like It Long Remix) (09.33)
07. No One'S Gonna Love You (Special Long Version) (09.29)
08. The Finest (Extended Version) (06.39)
09. Even When You Sleep (Extended Version) (05.38)
10. Borrowed Love (Extended Version/Acapella) (10.23)

Exact Audio Copy V1.0 beta 3 from 29. August 2011

EAC extraction logfile from 24. March 2014, 21:36

The S.O.S. Band / The 12'' Mixes

Used drive : PIONEER BD-RW BDR-207D Adapter: 4 ID: 0

Read mode : Secure
Utilize accurate stream : Yes
Defeat audio cache : Yes
Make use of C2 pointers : No

Read offset correction : 667
Overread into Lead-In and Lead-Out : No
Fill up missing offset samples with silence : Yes
Delete leading and trailing silent blocks : No
Null samples used in CRC calculations : Yes
Used interface : Native Win32 interface for Win NT & 2000
Gap handling : Appended to previous track

Used output format : User Defined Encoder
Selected bitrate : 1024 kBit/s
Quality : High
Add ID3 tag : No
Command line compressor : C:\Program Files (x86)\Exact Audio Copy\Flac\flac.exe
Additional command line options : -8 -V -T "artist=%artist%" -T "title=%title%" -T "album=%albumtitle%" -T "date=%year%" -T "tracknumber=%tracknr%" -T "genre=%genre%" %source%


TOC of the extracted CD

Track | Start | Length | Start sector | End sector
––––––––––––––––––––––––––––-
1 | 0:00.00 | 7:39.21 | 0 | 34445
2 | 7:39.21 | 7:43.36 | 34446 | 69206
3 | 15:22.57 | 5:35.14 | 69207 | 94345
4 | 20:57.71 | 8:15.24 | 94346 | 131494
5 | 29:13.20 | 6:33.24 | 131495 | 160993
6 | 35:46.44 | 9:35.52 | 160994 | 204170
7 | 45:22.21 | 9:31.55 | 204171 | 247050
8 | 54:54.01 | 6:41.68 | 247051 | 277193
9 | 61:35.69 | 5:40.10 | 277194 | 302703
10 | 67:16.04 | 10:23.01 | 302704 | 349429


Track 1

Filename H:\!!!!!!!!!!!!!!!!!!! EAC RIPS\The S.O.S. Band - The Tabu Anthology (2014)\CD10 - The 12'' Mixes\01 - S.O.S. (Dit Dit Dit Dash Dash Dash Dit Dit Dit) (Special Disco Mix).wav

Pre-gap length 0:00:02.00

Peak level 96.6 %
Extraction speed 3.3 X
Track quality 100.0 %
Test CRC E1190CB7
Copy CRC E1190CB7
Track not present in AccurateRip database
Copy OK

Track 2

Filename H:\!!!!!!!!!!!!!!!!!!! EAC RIPS\The S.O.S. Band - The Tabu Anthology (2014)\CD10 - The 12'' Mixes\02 - Take Your Time (Do It Right) (Long Version).wav

Pre-gap length 0:00:02.00

Peak level 96.5 %
Extraction speed 3.5 X
Track quality 99.9 %
Test CRC 00DA2717
Copy CRC 00DA2717
Track not present in AccurateRip database
Copy OK

Track 3

Filename H:\!!!!!!!!!!!!!!!!!!! EAC RIPS\The S.O.S. Band - The Tabu Anthology (2014)\CD10 - The 12'' Mixes\03 - Groovin' (That's What We're Doin') (Special Version).wav

Pre-gap length 0:00:02.00

Peak level 96.6 %
Extraction speed 4.0 X
Track quality 100.0 %
Test CRC ED8E6815
Copy CRC ED8E6815
Track not present in AccurateRip database
Copy OK

Track 4

Filename H:\!!!!!!!!!!!!!!!!!!! EAC RIPS\The S.O.S. Band - The Tabu Anthology (2014)\CD10 - The 12'' Mixes\04 - Just Be Good To Me (12'' Mix).wav

Pre-gap length 0:00:02.00

Peak level 96.6 %
Extraction speed 4.2 X
Track quality 99.9 %
Test CRC 043E5DCA
Copy CRC 043E5DCA
Track not present in AccurateRip database
Copy OK

Track 5

Filename H:\!!!!!!!!!!!!!!!!!!! EAC RIPS\The S.O.S. Band - The Tabu Anthology (2014)\CD10 - The 12'' Mixes\05 - Break Up (Part 1) (Remix).wav

Pre-gap length 0:00:02.00

Peak level 96.6 %
Extraction speed 4.7 X
Track quality 100.0 %
Test CRC EA765401
Copy CRC EA765401
Track not present in AccurateRip database
Copy OK

Track 6

Filename H:\!!!!!!!!!!!!!!!!!!! EAC RIPS\The S.O.S. Band - The Tabu Anthology (2014)\CD10 - The 12'' Mixes\06 - Just The Way You Like It (Like It Long Remix).wav

Pre-gap length 0:00:02.00

Peak level 96.6 %
Extraction speed 4.8 X
Track quality 99.9 %
Test CRC ECC7DCB2
Copy CRC ECC7DCB2
Track not present in AccurateRip database
Copy OK

Track 7

Filename H:\!!!!!!!!!!!!!!!!!!! EAC RIPS\The S.O.S. Band - The Tabu Anthology (2014)\CD10 - The 12'' Mixes\07 - No One's Gonna Love You (Special Long Version).wav

Pre-gap length 0:00:02.00

Peak level 96.6 %
Extraction speed 5.5 X
Track quality 100.0 %
Test CRC 61E279D1
Copy CRC 61E279D1
Track not present in AccurateRip database
Copy OK

Track 8

Filename H:\!!!!!!!!!!!!!!!!!!! EAC RIPS\The S.O.S. Band - The Tabu Anthology (2014)\CD10 - The 12'' Mixes\08 - The Finest (Extended Version).wav

Pre-gap length 0:00:02.00

Peak level 96.6 %
Extraction speed 5.6 X
Track quality 100.0 %
Test CRC DABF3012
Copy CRC DABF3012
Track not present in AccurateRip database
Copy OK

Track 9

Filename H:\!!!!!!!!!!!!!!!!!!! EAC RIPS\The S.O.S. Band - The Tabu Anthology (2014)\CD10 - The 12'' Mixes\09 - Even When You Sleep (Extended Version).wav

Pre-gap length 0:00:02.00

Peak level 96.6 %
Extraction speed 5.7 X
Track quality 100.0 %
Test CRC 755F86D7
Copy CRC 755F86D7
Track not present in AccurateRip database
Copy OK

Track 10

Filename H:\!!!!!!!!!!!!!!!!!!! EAC RIPS\The S.O.S. Band - The Tabu Anthology (2014)\CD10 - The 12'' Mixes\10 - Borrowed Love (Extended Version & Acapella).wav

Pre-gap length 0:00:02.00

Peak level 96.6 %
Extraction speed 6.2 X
Track quality 100.0 %
Test CRC 655D2A52
Copy CRC 655D2A52
Track not present in AccurateRip database
Copy OK


None of the tracks are present in the AccurateRip database

No errors occurred

End of status report

–– CUETools DB Plugin V2.1.3

[CTDB TOCID: _vQJmg7KA49EYUF8FgaTl.Zaxo4-] disk not present in database, Submit result: _vQJmg7KA49EYUF8FgaTl.Zaxo4- has been uploaded


==== Log checksum FB3913E33BD7EB50BA4D2CB62CEE89E306097FB4130B8A83E5771E5BF87151D2 ====

––––––––––––––––––––––––––––––––––––––––
Analyzed: The S.O.S. Band / The 12'' Mixes
––––––––––––––––––––––––––––––––––––––––

DR Peak RMS Duration Track
––––––––––––––––––––––––––––––––––––––––
DR10 -0.30 dB -11.93 dB 7:39 01-S.O.S. (Dit Dit Dit Dash Dash Dash Dit Dit Dit) (Special Disco Mix)
DR10 -0.31 dB -11.59 dB 7:43 02-Take Your Time (Do It Right) (Long Version)
DR10 -0.30 dB -11.26 dB 5:35 03-Groovin' (That's What We're Doin') (Special Version)
DR10 -0.30 dB -11.54 dB 8:15 04-Just Be Good To Me (12'' Mix)
DR10 -0.30 dB -11.31 dB 6:33 05-Break Up (Part 1) (Remix)
DR8 -0.30 dB -9.88 dB 9:36 06-Just The Way You Like It (Like It Long Remix)
DR10 -0.30 dB -11.73 dB 9:32 07-No One's Gonna Love You (Special Long Version)
DR9 -0.30 dB -10.49 dB 6:42 08-The Finest (Extended Version)
DR9 -0.30 dB -11.39 dB 5:40 09-Even When You Sleep (Extended Version)
DR10 -0.30 dB -12.38 dB 10:23 10-Borrowed Love (Extended Version & Acapella)
––––––––––––––––––––––––––––––––––––––––

Number of tracks: 10
Official DR value: DR10

Samplerate: 44100 Hz
Channels: 2
Bits per sample: 16
Bitrate: 932 kbps
Codec: FLAC
================================================================================

All thanks to original releaser

password: BlondStyle
SitemapOrologio Uomo SECTOR STEELTOUCH Multifunzione Silicone Blu Nero Colorato 100mt | Ballers.S04E08.WEB.H264-MEMENTO.srt | HD Justin Time GO - Season 1 Vedi Prodotto | Dragon Ball – Bảy Viên Ngọc Rồng chap 421 | Final Space (30)