Subcategories

Premiata Forneria Marconi - The World Became the World (1974) [Victor VICP-64242, Japan]

Posted By: v3122
Premiata Forneria Marconi - The World Became the World (1974) [Victor VICP-64242, Japan]

Premiata Forneria Marconi - The World Became the World (1974)
EAC | Flac(Image) + Cue + Log & MP3 CBR 320Kbps
2008 | Victor VICP-64242 | ~ 260 or 96 Mb | Scans(jpg) -> 2.99 Mb
Progressive Rock

PFM were never a group prone to stand still, or repeat themselves from one project to another. Their second international album release, The World Became the World, was a case in point – rather than continuing in the same precise direction as its predecessor, Photos of Ghosts (1973), it presented a serious challenge to their existing fans even as it pushed the envelope of their sound. There are still places where the band's lyrical side, strongly in evidence throughout Photos of Ghosts, comes through, especially on the softer tunes such as "Just Look Away." But the real emphasis of the group's work, as demonstrated on the opener, "The Mountain," the main body of the title track, and the basic content of the crowd-pleaser "Four Holes in the Ground," lies in a much harder, more aggressive brand of progressive rock and a bolder approach to playing – they're much more of a hard rock band on this album, which didn't hurt them in finding an audience in the United States on the tour that followed. A membership shift, with French bassist Patrick Djivas (late of the band Area) replacing Giorgio Piazza, also helps this process along – Djivas not only brings more of a jazz approach to his instrument, but a louder, harder sound that, in turn, toughens up the contribution of drummer Franz di Cioccio. And everybody – especially Flavio Premoli on the multiple synthesizers and other keyboards, and Franco Mussida's guitars – follows in turn. What's more, the group succeeds in creating the illusion of a live performance throughout this record; there are obviously multiple overdubs (especially on the electronic keyboards and the layered voices), but one does feel like these guys are playing as hard and loud as they did on-stage, a rare achievement for a lot of prog rock bands of the period. Peter Sinfield's English-language lyrics, wedded to the music by Premoli, Mussida, and wind player Mauro Pagani, have an eerie capacity to haunt the listener, especially given the group's phonetic pronunciations – "Is My Face on Straight?" may not make much sense lyrically without a lot more analysis than most listeners would give, but it is one great progressive rock showcase and it does stay with you. The original album finished with the instrumental "Have Your Cake and Beat It," which allowed all of the members a chance to explore the jazzier sides of their playing and overall sound, and cross over into what, at the time, would have been considered Focus and King Crimson territory. And even without a Robert Fripp, a Jan Akkerman, or a Mel Collins in their ranks, the piece still grows on the listener without overstaying its welcome, at a comparatively economical (for this sort of track) seven minutes and change.

by Bruce Eder, allmusic
[bPremiata Forneria Marconi - The World Became the World (1974):[/b]

Premiata Forneria Marconi - The World Became the World (1974) [Victor VICP-64242, Japan]

Tracklist:

1. The Mountain (10:47)
2. Just Look Away (4:03)
3. The World Became The World (4:49)
4. Four Holes In The Ground (6:23)
5. Is My Face On Straight (6:40)
6. Have Your Cake And Beat It (7:21)

Musicians:

Franz Di Cioccio - drums, percussion, vocals
Jan Patrick Djivas - bass, vocals
Franco Mussida - guitars, lead vocals
Mauro Pagani - woodwind, violin, vocals
Flavio Premoli - keyboards, lead vocals


Converted to Image (CUETools 2.1.4)

Exact Audio Copy V0.99 prebeta 3 from 28. July 2007

EAC extraction logfile from 8. July 2008, 22:25

Premiata Forneria Marconi / The World Became the World

Used drive : PLEXTOR DVDR PX-800A Adapter: 1 ID: 0

Read mode : Secure
Utilize accurate stream : Yes
Defeat audio cache : Yes
Make use of C2 pointers : No

Read offset correction : 48
Overread into Lead-In and Lead-Out : No
Fill up missing offset samples with silence : Yes
Delete leading and trailing silent blocks : No
Null samples used in CRC calculations : Yes
Used interface : Installed external ASPI interface
Gap handling : Appended to previous track

Used output format : Internal WAV Routines
Sample format : 44.100 Hz; 16 Bit; Stereo


TOC of the extracted CD

Track | Start | Length | Start sector | End sector
––––––––––––––––––––––––––––-
1 | 0:00.00 | 10:46.65 | 0 | 48514
2 | 10:46.65 | 4:03.22 | 48515 | 66761
3 | 14:50.12 | 4:49.08 | 66762 | 88444
4 | 19:39.20 | 6:22.50 | 88445 | 117144
5 | 26:01.70 | 6:40.10 | 117145 | 147154
6 | 32:42.05 | 7:20.67 | 147155 | 180221


Track 1

Filename C:\Documents and Settings\Stefano\Desktop\PFM - The World Became The World (1974 - 2008 K2HD mastering japan)[eac flac]\01 The Mountain.wav

Pre-gap length 0:00:02.00

Peak level 97.9 %
Track quality 99.9 %
Test CRC 54B6A749
Copy CRC 54B6A749
Accurately ripped (confidence 1) [E25C176A]
Copy OK

Track 2

Filename C:\Documents and Settings\Stefano\Desktop\PFM - The World Became The World (1974 - 2008 K2HD mastering japan)[eac flac]\02 Just Look Away.wav

Pre-gap length 0:00:01.34

Peak level 97.9 %
Track quality 100.0 %
Test CRC AB1949FC
Copy CRC AB1949FC
Accurately ripped (confidence 1) [F1621CD8]
Copy OK

Track 3

Filename C:\Documents and Settings\Stefano\Desktop\PFM - The World Became The World (1974 - 2008 K2HD mastering japan)[eac flac]\03 The World Became the World.wav

Pre-gap length 0:00:01.34

Peak level 97.9 %
Track quality 100.0 %
Test CRC 5E6257CE
Copy CRC 5E6257CE
Cannot be verified as accurate (confidence 1) [9790B2F1], AccurateRip returned [0012EBA2]
Copy OK

Track 4

Filename C:\Documents and Settings\Stefano\Desktop\PFM - The World Became The World (1974 - 2008 K2HD mastering japan)[eac flac]\04 Four Holes in the Ground.wav

Pre-gap length 0:00:01.34

Peak level 97.9 %
Track quality 100.0 %
Test CRC 3C6E8B62
Copy CRC 3C6E8B62
Cannot be verified as accurate (confidence 1) [C9BEE299], AccurateRip returned [3C921120]
Copy OK

Track 5

Filename C:\Documents and Settings\Stefano\Desktop\PFM - The World Became The World (1974 - 2008 K2HD mastering japan)[eac flac]\05 Is My Face on Straight.wav

Pre-gap length 0:00:01.34

Peak level 97.9 %
Track quality 99.9 %
Test CRC 51D10379
Copy CRC 51D10379
Accurately ripped (confidence 1) [8BA3ACC4]
Copy OK

Track 6

Filename C:\Documents and Settings\Stefano\Desktop\PFM - The World Became The World (1974 - 2008 K2HD mastering japan)[eac flac]\06 Have Your Cake and Beat It.wav

Pre-gap length 0:00:01.72

Peak level 97.9 %
Track quality 100.0 %
Test CRC BDB78A07
Copy CRC BDB78A07
Accurately ripped (confidence 1) [33468C50]
Copy OK


4 track(s) accurately ripped
2 track(s) could not be verified as accurate

Some tracks could not be verified as accurate

No errors occurred

End of status report


[CUETools log; Date: 04.07.2018 22:14:16; Version: 2.1.5]
[AccurateRip ID: 0009e434-0033983a-55096206] found.
Track [ CRC | V2 ] Status
01 [e25c176a|b7080220] (07+08/30) Accurately ripped
02 [f1621cd8|5cc7e8bb] (07+08/30) Accurately ripped
03 [9790b2f1|f69a64d3] (06+08/29) Accurately ripped
04 [c9bee299|8d0bbf24] (06+08/29) Accurately ripped
05 [8ba3acc4|8666b6d2] (07+08/30) Accurately ripped
06 [33468c50|2c28c20c] (07+08/30) Accurately ripped

Track Peak [ CRC32 ] [W/O NULL] [ LOG ]
– 97,9 [9753F040] [9EC1615A]
01 97,9 [54B6A749] [E199C95B] CRC32
02 97,9 [AB1949FC] [D97B113E] CRC32
03 97,9 [5E6257CE] [D1D7FF91] CRC32
04 97,9 [3C6E8B62] [4CB54C62] CRC32
05 97,9 [51D10379] [5465912C] CRC32
06 97,9 [BDB78A07] [F2C85253] CRC32


Premiata Forneria Marconi - The World Became the World (1974) [Victor VICP-64242, Japan]

All thanks go to the original releaser

Premiata Forneria Marconi or Premiata Forneria Marconi in my Blog

Download Premiata Forneria Marconi - The World Became the World (1974):
SitemapDragon Ball – Bảy Viên Ngọc Rồng chap 64 | Super Stay Fond De Teint Superstay Better Skin Maybelline | Privacy Policy Ariana Grande - breathin (The Ellen Show Performance) | GG 300g/0,01g MS-B Feinwaage Goldwaage Digital-waage Taschenwaage | Ogliastra