Subcategories

Marlena Shaw - Just A Matter Of Time (1976) [2013, Remastered & Expanded Edition]

Posted By: BlondStyle
Marlena Shaw - Just A Matter Of Time (1976) [2013, Remastered & Expanded Edition]

Marlena Shaw - Just A Matter Of Time (1976) [2013, Remastered & Expanded Edition]
R&B, Soul/Funk, Disco | EAC Rip | FLAC, Img+CUE+LOG+Scans (JPEG) | 48:20 Min | 370,14 Mb
Label: Blue Note/Soul Music.com Records (UK) | Cat.# SMCR 5103 | Released: 2013-08-19 (1976)
Marlena Shaw - Just A Matter Of Time (1976) [2013, Remastered & Expanded Edition]

"Just a Matter of Time" is an album by American vocalist Marlena Shaw recorded in 1976 and released on the Blue Note label. The song "Be For Real" was covered by Leonard Cohen on his 1992 album "The Future".
~Wikipedia
She was their first female artist, but Blue Note Records didn't have a clue on how to record or promote Marlena Shaw. Her two Cadet albums are more satisfying than any of her five Blue Note sets. This is her most commercial Blue Note offering, as she was dropped after Who Is This Bitch Anyway, an aptly titled album given that Marlena constantly bickered with Blue Note about the minuscule sales of three previous albums. Marlena craved a hit, something she hadn't experienced since "Mercy, Mercy, Mercy" made the R&B charts in 1967 on Cadet Records. Blue Note hired R&B producers Bert DeCoteaux and Tony Silvester to make it happen, but it never did; only the disco-ish "It's Better Than Walking Out" surfaced. "Be for Real" (Not the Harold Melvin & the Blue Notes song) and "No Hiding Place" owe more to gospel than anything, but they're weak and uninspiring, and "Brass Band" is silly. The best of the bunch include a remake of the Spinners' "Love Has Gone Away," "This Time I'll Be Sweeter," and the lilting "You and Me."
~Review by Andrew Hamilton

Marlena Shaw - Just A Matter Of Time (1976) [2013, Remastered & Expanded Edition]

Marlena Shaw - Just A Matter Of Time (1976) [2013, Remastered & Expanded Edition]




Release of the album: 1976, February [LP Blue Note Records, Cat.# BN-LA606-G, USA]
Release of this CD: 2013, August, 19 [CD Blue Note/Soul Music.com Records (UK), Cat.# SMCR 5103 / UPC: 5013929080331]
℗ 1976. Digital Remaster ℗ & © 2013 Blue Note Records.
Licensed courtesy of EMI Records Ltd.
Additional artwork © 2013 Soul Music Records.
Marketed and Distributed by Cherry Red Records Ltd.
Made in EU


Credits:

Arranged By – Bert DeCoteaux
Art Direction, Design – Ria Lewerke
Artwork, Design [Reissue] – Roger Williams
Bass – Bob Babbitt
Congas – Carlos Martin
Drums – Jimmy Young
Engineer [Assistant Engineer] – Ron St. Germain
Executive-Producer – George Butler
Guitar – Hugh McCrakin, Jeff Mironov, Jerry Friedman, Lance Quinn
Keyboards – Bert DeCoteaux, George Butcher, Ricky Williams
Liner Notes – A. Scott Galloway
Mastered By – Jose Rodrigues
Mixed By – Bob Clearmountain
Percussion – Dave Carey, Ted Sommers
Photography By – Doug Metzler
Producer – Bert DeCoteaux, Tony "Champagne" Silvester
Recorded By – Bob Clearmountain
Reissue Producer – David Nathan
Remastered By – Alan Wilson
Typography [Hand Lettering] – John Cabalka Studio


Tracklist:

01. It's Better Than Walkin' Out (04:23)
(Lee Garrett, Robert Taylor)
02. Brass Band (03:42)
(Bradford Craig)
03. This Time I'll Be Sweeter (05:00)
(Gwen Guthrie, Patrick Grant)
04. Think About Me (04:33)
(Gwen Guthrie, Patrick Grant)
05. You And Me (04:00)
(Carson Whitsett)
06. Love Has Gone Away (04:55)
(Charles Simmons, Joseph Jefferson)
07. Sing To Me (04:04)
(Bernard Ighner)
08. Take My Body (04:55)
(Bettye Crutcher)
09. Be For Real (05:02)
(Frederick Knight)
10. No Hiding Place (02:17)
(Arranged and Adapted by Marlena Shaw)

Bonus Track:

11. It's Better Than Walkin' Out (U.S. Blue Note 12'' Single SP-130) (05:29)
(Lee Garrett, Robert Taylor)

Exact Audio Copy V1.3 from 2. September 2016

EAC extraction logfile from 4. July 2018, 15:22

Marlena Shaw / Just A Matter Of Time (Expanded Edition)

Used drive : PIONEER BD-RW BDR-208D Adapter: 1 ID: 0

Read mode : Secure
Utilize accurate stream : Yes
Defeat audio cache : Yes
Make use of C2 pointers : No

Read offset correction : 667
Overread into Lead-In and Lead-Out : No
Fill up missing offset samples with silence : Yes
Delete leading and trailing silent blocks : No
Null samples used in CRC calculations : Yes
Used interface : Native Win32 interface for Win NT & 2000

Used output format : Internal WAV Routines
Sample format : 44.100 Hz; 16 Bit; Stereo


TOC of the extracted CD

Track | Start | Length | Start sector | End sector
––––––––––––––––––––––––––––-
1 | 0:00.00 | 4:22.49 | 0 | 19698
2 | 4:22.49 | 3:42.17 | 19699 | 36365
3 | 8:04.66 | 4:59.68 | 36366 | 58858
4 | 13:04.59 | 4:33.28 | 58859 | 79361
5 | 17:38.12 | 3:59.72 | 79362 | 97358
6 | 21:38.09 | 4:54.40 | 97359 | 119448
7 | 26:32.49 | 4:03.59 | 119449 | 137732
8 | 30:36.33 | 4:55.14 | 137733 | 159871
9 | 35:31.47 | 5:02.32 | 159872 | 182553
10 | 40:34.04 | 2:17.36 | 182554 | 192864
11 | 42:51.40 | 5:28.38 | 192865 | 217502


Range status and errors

Selected range

Filename D:\BlondStyle\Just A Matter Of Time (Expanded Edition).wav

Peak level 99.9 %
Extraction speed 4.1 X
Range quality 99.9 %
Test CRC 0426607B
Copy CRC 0426607B
Copy OK

No errors occurred


AccurateRip summary

Track 1 accurately ripped (confidence 1) [607E0A45] (AR v2)
Track 2 accurately ripped (confidence 1) [62C05FEC] (AR v2)
Track 3 accurately ripped (confidence 1) [74CAEC4D] (AR v2)
Track 4 accurately ripped (confidence 1) [DFB27B8C] (AR v2)
Track 5 accurately ripped (confidence 1) [C1E65751] (AR v2)
Track 6 accurately ripped (confidence 1) [53193610] (AR v2)
Track 7 accurately ripped (confidence 1) [112656B7] (AR v2)
Track 8 accurately ripped (confidence 1) [BA30D02B] (AR v2)
Track 9 accurately ripped (confidence 1) [A1041D78] (AR v2)
Track 10 accurately ripped (confidence 1) [C6831C8D] (AR v2)
Track 11 accurately ripped (confidence 1) [4306394E] (AR v2)

All tracks accurately ripped

End of status report

–– CUETools DB Plugin V2.1.6

[CTDB TOCID: cdSGlcC.CPAgcY6zF6ykRF_bhF8-] found
Submit result: cdSGlcC.CPAgcY6zF6ykRF_bhF8- has been confirmed
Track | CTDB Status
1 | (1/1) Accurately ripped
2 | (1/1) Accurately ripped
3 | (1/1) Accurately ripped
4 | (1/1) Accurately ripped
5 | (1/1) Accurately ripped
6 | (1/1) Accurately ripped
7 | (1/1) Accurately ripped
8 | (1/1) Accurately ripped
9 | (1/1) Accurately ripped
10 | (1/1) Accurately ripped
11 | (1/1) Accurately ripped


==== Log checksum 050B8CC67B7007F6DD528B46DEE78F4100797F3A89554C7501C94845DF115DC4 ====

––––––––––––––––––––––––––––––––––––––––
Analyzed: Marlena Shaw / Just A Matter Of Time (Expanded Edition)
––––––––––––––––––––––––––––––––––––––––

DR Peak RMS Duration Track
––––––––––––––––––––––––––––––––––––––––
DR12 -1.00 dB -15.16 dB 4:23 01-It's Better Than Walkin' Out
DR11 -1.00 dB -14.68 dB 3:42 02-Brass Band
DR10 -1.00 dB -13.65 dB 5:00 03-This Time I'll Be Sweeter
DR11 -1.00 dB -14.32 dB 4:33 04-Think About Me
DR11 -1.00 dB -14.54 dB 4:00 05-You And Me
DR11 -1.00 dB -13.98 dB 4:55 06-Love Has Gone Away
DR11 -1.00 dB -14.14 dB 4:04 07-Sing To Me
DR12 -1.00 dB -14.37 dB 4:55 08-Take My Body
DR11 -1.00 dB -14.58 dB 5:02 09-Be For Real
DR11 -1.00 dB -14.73 dB 2:17 10-No Hiding Place
DR12 0.00 dB -13.43 dB 5:29 11-It's Better Than Walkin' Out (U.S. Blue Note 12'' Single SP-130) (Bonus Track)
––––––––––––––––––––––––––––––––––––––––

Number of tracks: 11
Official DR value: DR11

Samplerate: 44100 Hz
Channels: 2
Bits per sample: 16
Bitrate: 916 kbps
Codec: FLAC
================================================================================

password: BlondStyle
SitemapHalf Rhyme | HD 3 A.M. 3D (2012) | Raising Boys In The Twenty-First Century Programmaboekje Grand Prix 500cc Motocross 1981 Lichtenvoorde (NL) | Азиатские фильмы (HD Video) | Mindhunter