Subcategories

Duke Ellington and His Orchestra - Harlem [Recorded 1964] (1985) (Repost)

Posted By: gribovar
Duke Ellington and His Orchestra - Harlem [Recorded 1964] (1985) (Repost)

Duke Ellington and His Orchestra - Harlem [Recorded 1964] (1985)
EAC Rip | FLAC (image+.cue+log) - 273 MB | MP3 CBR 320 kbps (LAME 3.93) - 124 MB | Covers (4 MB) included
Genre: Jazz, Big Band, Swing | RAR 3% Rec. | Label: Pablo Records (00025218024525)

Taken from a concert in Stockholm, Sweden, this well-recorded CD mostly features trumpeters Cootie Williams and Cat Anderson, tenor-saxophonist Paul Gonsalves and altoist Johnny Hodges as the main soloists in a set with Duke Ellington's orchestra. "The Opener," "Blow by Blow" and "The Prowling Cat" have rarely been recorded and even the more familiar pieces are given new life, highlighted by a definitive rendition of "Harlem."
Tracklist:
01. The Opener
02. Happy Reunion
03. Blow by Blow
04. Caravan
05. Tootie for Cootie
06. Satin Doll
07. Harlem
08. Things Ain't What They Used to Be
09. All of Me
10. The Prowling Cat

Total time: 50:59

Exact Audio Copy V0.99 prebeta 3 from 28. July 2007

EAC extraction logfile from 8. February 2008, 17:16

Duke Ellington / Harlem

Used drive : LITE-ON CD-RW SOHR-5238S Adapter: 1 ID: 1

Read mode : Secure
Utilize accurate stream : Yes
Defeat audio cache : Yes
Make use of C2 pointers : No

Read offset correction : 6
Overread into Lead-In and Lead-Out : No
Fill up missing offset samples with silence : Yes
Delete leading and trailing silent blocks : No
Null samples used in CRC calculations : Yes
Used interface : Installed external ASPI interface

Used output format : Internal WAV Routines
Sample format : 44.100 Hz; 16 Bit; Stereo


TOC of the extracted CD

Track | Start | Length | Start sector | End sector
––––––––––––––––––––––––––––-
1 | 0:00.00 | 3:18.47 | 0 | 14896
2 | 3:18.47 | 3:48.70 | 14897 | 32066
3 | 7:07.42 | 4:03.00 | 32067 | 50291
4 | 11:10.42 | 5:11.55 | 50292 | 73671
5 | 16:22.22 | 6:40.65 | 73672 | 103736
6 | 23:03.12 | 4:34.08 | 103737 | 124294
7 | 27:37.20 | 13:46.25 | 124295 | 186269
8 | 41:23.45 | 3:23.12 | 186270 | 201506
9 | 44:46.57 | 3:24.20 | 201507 | 216826
10 | 48:11.02 | 2:47.68 | 216827 | 229419


Range status and errors

Selected range

Filename J:\EAC\Harlem.wav

Peak level 94.1 %
Range quality 100.0 %
Test CRC D9245F32
Copy CRC D9245F32
Copy OK

No errors occurred

End of status report

[CUETools log; Date: 04.07.2018 11:26:44; Version: 2.1.4]
[CTDB TOCID: v2D7jLhKmeW1MxC60WchrmBuoXo-] found.
Track | CTDB Status
1 | (11/11) Accurately ripped
2 | (11/11) Accurately ripped
3 | (11/11) Accurately ripped
4 | ( 8/11) Accurately ripped, or (3/11) differs in 3 samples @02:26:08
5 | (11/11) Accurately ripped
6 | (11/11) Accurately ripped
7 | (11/11) Accurately ripped
8 | (11/11) Accurately ripped
9 | (11/11) Accurately ripped
10 | (11/11) Accurately ripped
[AccurateRip ID: 0012d058-009b63c8-9e0bf20a] found.
Track [ CRC | V2 ] Status
01 [49e84d45|7aeeebab] (0+4/8) Accurately ripped
02 [a5fd4a67|77525f0e] (0+4/8) Accurately ripped
03 [b34f5326|69f0c423] (0+4/8) Accurately ripped
04 [9fa20760|b3547557] (0+4/8) Accurately ripped
05 [58b68ce0|d41c0f91] (0+4/8) Accurately ripped
06 [4aa1d59d|271baf20] (0+4/8) Accurately ripped
07 [2afa19b3|0a674abb] (0+4/8) Accurately ripped
08 [2e66c1b3|9575d613] (0+4/8) Accurately ripped
09 [4a8eaee0|4c586b12] (0+4/8) Accurately ripped
10 [471a892b|20cc223d] (0+4/8) Accurately ripped
Offsetted by 656:
01 [130e9f10] (0/8) No match (V2 was not tested)
02 [1f456cc8] (0/8) No match (V2 was not tested)
03 [930c35bc] (0/8) No match (V2 was not tested)
04 [737f01cb] (0/8) No match (V2 was not tested)
05 [4442afb6] (0/8) No match (V2 was not tested)
06 [0896accf] (0/8) No match (V2 was not tested)
07 [eb8231e1] (0/8) No match (V2 was not tested)
08 [3f7c3ce0] (0/8) No match (V2 was not tested)
09 [959a9d4f] (0/8) No match (V2 was not tested)
10 [9e4ac596] (0/8) No match (V2 was not tested)

Track Peak [ CRC32 ] [W/O NULL] [ LOG ]
– 94,1 [D9245F32] [47FD4224] CRC32
01 76,7 [8971AE7C] [14BA3669]
02 53,3 [D4E94078] [FE7416C7]
03 78,8 [D8C32078] [A9AE062A]
04 73,7 [F517C6EE] [4A7CC1EC]
05 86,6 [D32F648E] [03F2DEB0]
06 93,1 [24D2A1E3] [B002BE01]
07 94,1 [A38247F4] [FB7DD4C7]
08 88,2 [1B3A0475] [FDF9B523]
09 75,2 [05D56D96] [9971C762]
10 85,8 [324A6953] [C431A135]

Thanks to garet jax

See also:


SitemapReplay Media Catcher 7 0 1 26 + patch - Crackingpatching zip | Kuroko no Basket | تحميل APK PDF Kitoblar Kimyo | 28. Tom Walker Leave A Light On mp3 | Nu Kopen