Subcategories

Damian Wilson & Adam Wakeman - The Sun Will Dance In Its Twilight Hour (2018)

Posted By: v3122
Damian Wilson & Adam Wakeman - The Sun Will Dance In Its Twilight Hour (2018)

Damian Wilson & Adam Wakeman - The Sun Will Dance In Its Twilight Hour (2018)
EAC | Flac(Image) + Cue + Log & MP3 CBR 320Kbps
Blacklake, BL411336 | RU | ~ 219 or 94 Mb | Scans(jpg) -> 6.58 Mb
Acoustic, Art Rock | Unofficial Release

The combination of Damian Wilson and Adam Wakeman has never disappointed and this eloquent album continues that trend. Key to their artistic success is an understanding of songwriting and a defiant resistance against overplaying. Instead, the songs collected here are raw and direct, with the arrangements deliberately restrained and infused with a simple beauty. Laugh In Time is a seductive ballad that’s reminiscent of Cat Stevens at his finest, and the darkly amusing Blackpool Clip Joint Racket possesses the grandeur of early Billy Joel. Indeed, throughout The Sun Will Dance In Its Twilight Hour, there’s a rare consistency to the music, which mixes a contemporary approach with early-70s concise inspiration. Opener The Last American Hero, with an impossibly catchy chorus, is an upbeat tale of an airman and astronaut, and On This Battlefield is similarly direct. The inclusion of Travis guitarist Andy Dunlop alongside seductive strings only enhances the appeal. Impeccably pitched and performed, it’s an album with the potential – given the right exposure – to cross over to mass public appeal.

By Rich Wilson
Damian Wilson & Adam Wakeman - The Sun Will Dance In Its Twilight Hour (2018):

Damian Wilson & Adam Wakeman - The Sun Will Dance In Its Twilight Hour (2018)

Tracklist:

01. The Last American Hero 04:26
02. On This Battlefield 03:24
03. Always The Lonely One 04:31
04. Blackpool Clip Joint Racket 03:22
05. Laugh In Time 03:28
06. Better Than That 05:18
07. Red Socks 02:46
08. Shining A Light On A Miracle 04:29
09. Tried And Tested 02:55
10. The Sun Will Dance In Its Twilight Hour 04:18

Musicians:

Damian Wilson - Vocals, Acoustic Guitar
Adam Wakeman - Vocals, Piano, Acoustic Guitar, Electric Guitar, Bass, Percussion

Andy Dunlop - Electric Guitar (tracks: 6)
Tony Woollard - Cello (tracks: 2,3,5,8)
Ash Soan - Drums (tracks: 6)
Hayley Sanderson - Backing Vocals (tracks: 6)


Converted to Image (CUETools 2.1.4)

Exact Audio Copy V1.1 from 23. June 2015

EAC extraction logfile from 29. June 2018, 20:09

Damian Wilson & Adam Wakeman / The Sun Will Dance In Its Twilight Hour

Used drive : TSSTcorpCDDVDW SH-224DB Adapter: 1 ID: 0

Read mode : Secure
Utilize accurate stream : Yes
Defeat audio cache : Yes
Make use of C2 pointers : No

Read offset correction : 6
Overread into Lead-In and Lead-Out : No
Fill up missing offset samples with silence : Yes
Delete leading and trailing silent blocks : No
Null samples used in CRC calculations : Yes
Used interface : Native Win32 interface for Win NT & 2000
Gap handling : Appended to previous track

Used output format : User Defined Encoder
Selected bitrate : 1024 kBit/s
Quality : High
Add ID3 tag : No
Command line compressor : C:\Program Files (x86)\Exact Audio Copy\win64\flac.exe
Additional command line options : -8 -V -T "ARTIST=%artist%" -T "TITLE=%title%" -T "ALBUM=%albumtitle%" -T "DATE=%year%" -T "TRACKNUMBER=%tracknr%" -T "GENRE=%genre%" -T "COMMENT=%comment%" %source% -o %dest%


TOC of the extracted CD

Track | Start | Length | Start sector | End sector
––––––––––––––––––––––––––––-
1 | 0:00.00 | 4:25.47 | 0 | 19921
2 | 4:25.47 | 3:24.17 | 19922 | 35238
3 | 7:49.64 | 4:30.66 | 35239 | 55554
4 | 12:20.55 | 3:21.68 | 55555 | 70697
5 | 15:42.48 | 3:27.61 | 70698 | 86283
6 | 19:10.34 | 5:18.31 | 86284 | 110164
7 | 24:28.65 | 2:45.43 | 110165 | 122582
8 | 27:14.33 | 4:29.14 | 122583 | 142771
9 | 31:43.47 | 2:55.36 | 142772 | 155932
10 | 34:39.08 | 4:18.35 | 155933 | 175317


Track 1

Filename F:\Sket4er\Damian Wilson & Adam Wakeman – The Sun Will Dance In Its Twilight Hour 2018\01 The Last American Hero.wav

Pre-gap length 0:00:02.00

Peak level 97.6 %
Extraction speed 2.0 X
Track quality 100.0 %
Test CRC 0EAA3F05
Copy CRC 0EAA3F05
Accurately ripped (confidence 2) [87BA57B6] (AR v2)
Copy OK

Track 2

Filename F:\Sket4er\Damian Wilson & Adam Wakeman – The Sun Will Dance In Its Twilight Hour 2018\02 On This Battlefield.wav

Peak level 96.7 %
Extraction speed 2.1 X
Track quality 100.0 %
Test CRC A9CE8E48
Copy CRC A9CE8E48
Accurately ripped (confidence 2) [2A25A111] (AR v2)
Copy OK

Track 3

Filename F:\Sket4er\Damian Wilson & Adam Wakeman – The Sun Will Dance In Its Twilight Hour 2018\03 Always The Lonely One.wav

Pre-gap length 0:00:01.14

Peak level 96.9 %
Extraction speed 2.0 X
Track quality 99.9 %
Test CRC 10464327
Copy CRC 10464327
Accurately ripped (confidence 2) [271F735B] (AR v2)
Copy OK

Track 4

Filename F:\Sket4er\Damian Wilson & Adam Wakeman – The Sun Will Dance In Its Twilight Hour 2018\04 Blackpool Clip Joint Racket.wav

Pre-gap length 0:00:01.12

Peak level 97.0 %
Extraction speed 2.3 X
Track quality 100.0 %
Test CRC 4AD74458
Copy CRC 4AD74458
Accurately ripped (confidence 2) [B9753D6E] (AR v2)
Copy OK

Track 5

Filename F:\Sket4er\Damian Wilson & Adam Wakeman – The Sun Will Dance In Its Twilight Hour 2018\05 Laugh In Time.wav

Pre-gap length 0:00:01.06

Peak level 96.9 %
Extraction speed 2.0 X
Track quality 99.9 %
Test CRC 9656663F
Copy CRC 9656663F
Accurately ripped (confidence 2) [77243DCF] (AR v2)
Copy OK

Track 6

Filename F:\Sket4er\Damian Wilson & Adam Wakeman – The Sun Will Dance In Its Twilight Hour 2018\06 Better Than That.wav

Pre-gap length 0:00:01.10

Peak level 96.8 %
Extraction speed 2.4 X
Track quality 99.9 %
Test CRC D97D0397
Copy CRC D97D0397
Accurately ripped (confidence 2) [527DD566] (AR v2)
Copy OK

Track 7

Filename F:\Sket4er\Damian Wilson & Adam Wakeman – The Sun Will Dance In Its Twilight Hour 2018\07 Red Socks.wav

Pre-gap length 0:00:02.37

Peak level 81.8 %
Extraction speed 2.7 X
Track quality 100.0 %
Test CRC 86CD2266
Copy CRC 86CD2266
Accurately ripped (confidence 2) [F1D0E8E9] (AR v2)
Copy OK

Track 8

Filename F:\Sket4er\Damian Wilson & Adam Wakeman – The Sun Will Dance In Its Twilight Hour 2018\08 Shining A Light On A Miracle.wav

Pre-gap length 0:00:02.34

Peak level 97.3 %
Extraction speed 3.0 X
Track quality 100.0 %
Test CRC 2B0CB4DC
Copy CRC 2B0CB4DC
Accurately ripped (confidence 2) [26434691] (AR v2)
Copy OK

Track 9

Filename F:\Sket4er\Damian Wilson & Adam Wakeman – The Sun Will Dance In Its Twilight Hour 2018\09 Tried And Tested.wav

Peak level 96.9 %
Extraction speed 2.9 X
Track quality 100.0 %
Test CRC 0C806768
Copy CRC 0C806768
Accurately ripped (confidence 2) [177C71B9] (AR v2)
Copy OK

Track 10

Filename F:\Sket4er\Damian Wilson & Adam Wakeman – The Sun Will Dance In Its Twilight Hour 2018\10 The Sun Will Dance In Its Twilight Hour.wav

Pre-gap length 0:00:00.30

Peak level 80.4 %
Extraction speed 3.2 X
Track quality 100.0 %
Test CRC 081AEACD
Copy CRC 081AEACD
Accurately ripped (confidence 2) [76E9F9D6] (AR v2)
Copy OK


All tracks accurately ripped

No errors occurred

End of status report

–– CUETools DB Plugin V2.1.6

[CTDB TOCID: Upbdl0YpglJ7BlPSy7ImRpaEmpw-] found
Submit result: Upbdl0YpglJ7BlPSy7ImRpaEmpw- has been confirmed
Track | CTDB Status
1 | (13/13) Accurately ripped
2 | (13/13) Accurately ripped
3 | (13/13) Accurately ripped
4 | (13/13) Accurately ripped
5 | (13/13) Accurately ripped
6 | (13/13) Accurately ripped
7 | (13/13) Accurately ripped
8 | (13/13) Accurately ripped
9 | (13/13) Accurately ripped
10 | (13/13) Accurately ripped


==== Log checksum 2AE923A9A4FDF33128356E492569C83FE314495123D90B8DE3C81A55E75C674F ====


[CUETools log; Date: 04.07.2018 20:15:29; Version: 2.1.5]
[AccurateRip ID: 000ede85-00767673-7a09210a] found.
Track [ CRC | V2 ] Status
01 [ecaf8678|87ba57b6] (0+2/6) Accurately ripped
02 [e7c648ae|2a25a111] (0+2/6) Accurately ripped
03 [1aca2388|271f735b] (0+2/6) Accurately ripped
04 [f271c919|b9753d6e] (0+2/6) Accurately ripped
05 [4a4b6457|77243dcf] (0+2/6) Accurately ripped
06 [0c62a321|527dd566] (0+2/6) Accurately ripped
07 [ab9992b8|f1d0e8e9] (0+2/6) Accurately ripped
08 [6887413e|26434691] (0+2/6) Accurately ripped
09 [df7f7c0f|177c71b9] (0+2/6) Accurately ripped
10 [07e9243a|76e9f9d6] (0+2/6) Accurately ripped
Offsetted by 6:
01 [676dc675] (0/6) No match (V2 was not tested)
02 [219c0b82] (0/6) No match (V2 was not tested)
03 [b5c8673b] (0/6) No match (V2 was not tested)
04 [e5eef9f9] (0/6) No match (V2 was not tested)
05 [52d86694] (0/6) No match (V2 was not tested)
06 [7569621c] (0/6) No match (V2 was not tested)
07 [4924aa73] (0/6) No match (V2 was not tested)
08 [029b27fa] (0/6) No match (V2 was not tested)
09 [0b956fdf] (0/6) No match (V2 was not tested)
10 [8d4645eb] (0/6) No match (V2 was not tested)

Track Peak [ CRC32 ] [W/O NULL] [ LOG ]
– 97,6 [4F236EC5] [AB6823C6]
01 97,6 [0EAA3F05] [49F4AB81] CRC32
02 96,7 [A9CE8E48] [4E0F49B3] CRC32
03 96,9 [10464327] [BCE97A27] CRC32
04 97,0 [4AD74458] [EE7D810A] CRC32
05 96,9 [9656663F] [B38E6A11] CRC32
06 96,8 [D97D0397] [2B1BEB76] CRC32
07 81,8 [86CD2266] [70F70C1F] CRC32
08 97,3 [2B0CB4DC] [9E4441C4] CRC32
09 96,9 [0C806768] [CE54191E] CRC32
10 80,4 [081AEACD] [544679C6] CRC32


Damian Wilson & Adam Wakeman - The Sun Will Dance In Its Twilight Hour (2018)

All thanks go to Sket4er

Download Damian Wilson & Adam Wakeman - The Sun Will Dance In Its Twilight Hour (2018):
SitemapEric Roberts | John Qualen | The [email protected] Cinderella Girls Sub Indo Batch Eps 1-13 Lengkap Скачать APK | Più economici | Lesben-Anfrage abgelehnt - Lesbian Request Denied