Sly And The Family Stone - There's A Riot Goin' On (1971) [Reissue 2013] PS3 ISO + Hi-Res FLAC

Posted By: HDAtall
Sly And The Family Stone - There's A Riot Goin' On (1971) [Reissue 2013] PS3 ISO + Hi-Res FLAC

Sly & The Family Stone - There's A Riot Goin' On (1971) [Reissue 2013]
PS3 Rip | SACD ISO | DSD64 2.0 > 1-bit/2.8224 MHz | 47:59 minutes | Scans included | 1,38 GB
or FLAC(converted with foobar2000 to tracks) 24bit/88,2 kHz | Full Scans included | 1,01 GB

There's a Riot Goin' On is the fifth studio album by American band Sly and the Family Stone. The album was recorded during 1970 and 1971 at Record Plant Studios in Sausalito, California, with sessions dominated by band frontman Sly Stone during a period of drug use and intra-group tension. There's a Riot Goin' On embraced a darker and more challenging sound than the optimistic style of the group's previous records, making use of hard funk rhythms, primitive drum machines, extensive overdubbing, and unconventional mixing techniques. The album's planned title was Africa Talks to You, but it was retitled in response to Marvin Gaye's album What's Going On, released six months before.

It's easy to write off There's a Riot Goin' On as one of two things – Sly Stone's disgusted social commentary or the beginning of his slow descent into addiction. It's both of these things, of course, but pigeonholing it as either winds up dismissing the album as a whole, since it is so bloody hard to categorize. What's certain is that Riot is unlike any of Sly & the Family Stone's other albums, stripped of the effervescence that flowed through even such politically aware records as Stand! This is idealism soured, as hope is slowly replaced by cynicism, joy by skepticism, enthusiasm by weariness, sex by pornography, thrills by narcotics. Joy isn't entirely gone – it creeps through the cracks every once and awhile and, more disturbing, Sly revels in his stoned decadence. What makes Riot so remarkable is that it's hard not to get drawn in with him, as you're seduced by the narcotic grooves, seductive vocals slurs, leering electric pianos, and crawling guitars. As the themes surface, it's hard not to nod in agreement, but it's a junkie nod, induced by the comforting coma of the music. And damn if this music isn't funk at its deepest and most impenetrable – this is dense music, nearly impenetrable, but not from its deep grooves, but its utter weariness. Sly's songwriting remains remarkably sharp, but only when he wants to write – the foreboding opener "Luv N' Haight," the scarily resigned "Family Affair," the cracked cynical blues "Time," and "(You Caught Me) Smilin'." Ultimately, the music is the message, and while it's dark music, it's not alienating – it's seductive despair, and that's the scariest thing about it.

Tracklist:

01. Luv N' Haight
02. Just Like A Baby
03. Poet
04. Family Affair
05. Africa Talks To You ("The Asphalt Jungle")
06. There's A Riot Goin' On [Blank Track]
07. Brave & Strong
08. (You Caught Me) Smilin'
09. Time
10. Spaced Cowboy
11. Runnin' Away
12. Thank You For Talkin' To Me, Africa

foobar2000 1.2.9 / Dynamic Range Meter 1.1.1

––––––––––––––––––––––––––––––––––––––––
Analyzed: Sly & The Family Stone / There's A Riot Goin' On
––––––––––––––––––––––––––––––––––––––––

DR Peak RMS Duration Track
––––––––––––––––––––––––––––––––––––––––
DR12 -6.95 dB -21.14 dB 4:04 01-Luv N' Haight
DR15 -9.14 dB -25.18 dB 5:13 02-Just Like A Baby
DR13 -8.76 dB -24.47 dB 3:02 03-Poet
DR13 -8.28 dB -23.36 dB 3:06 04-Family Affair
DR13 -7.77 dB -24.09 dB 8:44 05-Africa Talks To You ("The Asphalt Jungle")
DR14 -58.33 dB -72.18 dB 0:04 06-There's A Riot Goin' On
DR12 -7.15 dB -22.56 dB 3:31 07-Brave & Strong
DR13 -8.16 dB -23.73 dB 2:56 08-(You Caught Me) Smilin'
DR14 -8.16 dB -26.93 dB 3:05 09-Time
DR13 -8.21 dB -22.77 dB 3:59 10-Spaced Cowboy
DR12 -9.66 dB -22.95 dB 2:57 11-Runnin' Away
DR14 -7.61 dB -23.54 dB 7:18 12-Thank You For Talkin' To Me, Africa
––––––––––––––––––––––––––––––––––––––––

Number of tracks: 12
Official DR value: DR13

Samplerate: 2822400 Hz / PCM Samplerate: 88200 Hz
Channels: 2
Bits per sample: 24
Bitrate: 5645 kbps
Codec: DSD64


Thanks to PS³SACD!
Uncompressed SACD ISO size > 1,92 GB
>
SitemapBoulevard (Boulevard) 2014 | Temporada 2 | HD Black Panther (2018) HD Jolly LLB 2 [Hindi Audio] (2017) | Green Green (12) | Fist Fight - 兄弟Fist Fight