Rob Agerbeek Trio - The Very Thought Of You (2005) [Japan 2018] SACD ISO + Hi-Res FLAC

Posted By: HDAtall
Rob Agerbeek Trio - The Very Thought Of You (2005) [Japan 2018] SACD ISO + Hi-Res FLAC

Rob Agerbeek Trio - The Very Thought Of You (2005) [Japan 2018]
SACD Rip | SACD ISO | DSD64 2.0 > 1-bit/2.8224 MHz | 48:50 minutes | Front/Rear Covers | 1,52 GB
or FLAC(converted with foobar2000 to tracks) 24bit/88,2 kHz | Front/Rear Covers | 1,06 GB

Rob Agerbeek is an Indo Dutch boogie-woogie and jazz pianist and winner of several jazz concourses in the Netherlands in the late 1950s. He is regarded as one of Europe's finest jazz pianists, covering the full spectrum of jazz styles from his early days of Boogie-woogie to Chicago traditional Jazz, swing and contemporary jazz.

Rob Agerbeek is a Dutch pianist who has worked with the Dutch Jazz Orchestra and also American tenor saxophonist George Coleman, though he has had relatively little exposure in North America. This trio date features his regular band with bassist Harry Emmery and drummer Ben Schroeder. Agerbeek approaches the session as a jack-of-all-trades, delving into hard bop, bop, soul-jazz, and Latin, along with standards. His enthusiastic arrangement of Leon Russell's often placid 'This Masquerade' blends influences from Red Garland, Harold Mabern, and others, while his dreamy take of Django Reinhardt's 'Nuages' is understated with a small degree of playfulness. Agerbeek's driving hard bop setting of Dizzy Gillespie's 'Birks Works' features a superb solo by Emmery, while his take of the trumpeter's 'Tin Tin Deo' crackles with energy as well. Yet one of the best tracks is his buoyant setting of pianist David Hazeltine's 'Waltzing at Suite One,' with Schroeder starting with brushes and switching to sticks as the performance gains steam. Producer Tetsuo Hara obviously saw potential in the veteran pianist's music, so expect to hear more from Rob Agerbeek on the Venus label.

Tracklist:

01. Besame Mucho
02. This Masquerade
03. Birks Works
04. Trouble In Mind
05. Once I Loved
06. Waltzing At Suite One
07. Sometime I Feel Like A Motherless Child
08. Alone Together
09. Nuages
10. Tin Tin Deo
11. The Very Thought of You

Produced, Mixed & Mastered by Tetsuo Hara. Engineered by Max Bolleman.
Recorded on July 6 & 7, 2005 at Studio 44 in Monster Holland.
Venus Hyper Magnum Sound Direct Mix. VENUS Japan # VHGD-281.

Personnel
Rob Agerbeek - piano
Harry Emmery - bass
Ben Schroder - drums

foobar2000 1.3.17 / Dynamic Range Meter 1.1.1

––––––––––––––––––––––––––––––––––––––––
Analyzed: ROB AGERBEEK TRIO / The Very Thought Of You
––––––––––––––––––––––––––––––––––––––––

DR Peak RMS Duration Track
––––––––––––––––––––––––––––––––––––––––
DR7 -4.60 dB -12.90 dB 4:34 01-Besame Mucho
DR7 -4.93 dB -12.89 dB 3:45 02-This Masquerade
DR7 -4.48 dB -13.09 dB 4:17 03-Birks Works
DR7 -4.90 dB -13.07 dB 5:21 04-Trouble In Mind
DR8 -4.96 dB -14.69 dB 6:38 05-Once I Loved
DR7 -4.93 dB -14.05 dB 5:23 06-Waltzing At Suite One
DR7 -5.09 dB -14.72 dB 3:47 07-Sometime I Feel Like A Motherless Child
DR8 -5.15 dB -16.75 dB 3:14 08-Alone Together
DR9 -5.19 dB -15.80 dB 3:28 09-Nuages
DR7 -4.98 dB -12.91 dB 4:10 10-Tin Tin Deo
DR7 -5.16 dB -14.36 dB 4:13 11-The Very Thought of You
––––––––––––––––––––––––––––––––––––––––

Number of tracks: 11
Official DR value: DR7

Samplerate: 2822400 Hz / PCM Samplerate: 88200 Hz
Channels: 2
Bits per sample: 1
Bitrate: 5645 kbps
Codec: DSD64


Thanks to jazzyman!
Uncompressed SACD ISO size > 1,95 GB
>
Sitemapجاستینا | Captulo 162 : ¡Chopper está en peligro! Dios original vs. Shura el Sacerdote | WWE Slam City NEW Chrome Steel Front Bumper Face Bar Replacement for 2008-2016 Ford Econoline | Freimaurer in 60 Minuten | Responder