The Plaster Caster Blues Band - The Plaster Caster Blues Band (1969/2018) [Official Digital Download]

Posted By: SERTiL
The Plaster Caster Blues Band - The Plaster Caster Blues Band (1969/2018) [Official Digital Download]

The Plaster Caster Blues Band - The Plaster Caster Blues Band (1969/2018)
FLAC (tracks) 24-bit/44.1 kHz | Time - 33:39 minutes | 612 MB
Studio Master, Official Digital Download | Artwork: Front Cover

Some of the records I post here are unjustifiably obscure, while others are just obscure–this one falls into the latter category. However, once again I didn't have time to rip a new record (it takes time once you take into account the de-clicking that I have to do) and so have fallen back on a rip I made some time ago and haven't listened to since, probably with good reason. (The record, again, comes from the WMUC library.)

The Plaster Casters, who lend their name but none of their musical talent to this record, were a group of groupies (their has to be a better collective noun than group for groupies but I'm not sure what it is) who were led by Cynthia Plaster Caster and made their name by taking plaster casts of male rock star genitalia. They really have nothing to do with the actual recording, though. Instead what you have here are some generic 60s blues-based rock instrumentals played by a component (if uninspired) group of session peformers that includes some fine blues and r&b players (see line-up below). It fairly groovy, generic rock and blues with harmonica and horns and would have made a component soundtrack to some teen-exploitation film. It doesn't have anything to do with plaster casting or groupies, however. (Though, if you are looking for some songs about groupies, the WFMU blog has a post for you.)

Here's the line-up:

Bobby Bryant (Trumpet), Arthur Adams (Guitar), Jules Chaiken (Vocals), Max Hardy (Drums), Gildo Mahones (Organ), Gildo Mahones (Piano), Gildo Mahones (Keyboards), Ellen Sander (Vocals), George Harmonica Smith (Harmonica), George Harmonica Smith, Clifford Solomon (Saxophone), Clifford Solomon (Tenor (Vocal)), Bob Thiele (Producer)

Tracklist:
1. Lanoola Goes Limp 03:10
2. Seven Foot Drummer From Fleetwood Mac 03:04
3. Joint Venture 02:41
4. You Didn't Try to Ball Me (For Frank Zappa) 02:15
5. Banks Of Barclay 03:06
6. Welcome Hamptons Outstanding 02:52
7. Plaster Caster 03:59
8. Chicago Charva Chapter 02:58
9. Cynthia's Blues 03:10
10. Diane's Blue Plate Special 03:13
11. Blues For Big Jimi 03:11
12. Pray Tell Brian 03:24

Please note: Tracks "1, 3-9, 11" are in 96kHz/24bit format.

foobar2000 1.3.7 / Dynamic Range Meter 1.1.1
log date: 2018-07-04 17:24:48

––––––––––––––––––––––––––––––––––––––––
Analyzed: The Plaster Caster Blues Band / The Plaster Caster Blues Band
––––––––––––––––––––––––––––––––––––––––

DR Peak RMS Duration Track
––––––––––––––––––––––––––––––––––––––––
DR13 -2.21 dB -18.73 dB 3:05 02-Seven Foot Drummer From Fleetwood Mac
DR13 -2.66 dB -18.92 dB 3:06 05-Banks Of Barclay
DR12 -2.85 dB -18.12 dB 3:14 10-Diane's Blue Plate Special
DR13 -3.00 dB -18.95 dB 3:25 12-Pray Tell Brian
––––––––––––––––––––––––––––––––––––––––

Number of tracks: 4
Official DR value: DR13

Samplerate: 44100 Hz
Channels: 2
Bits per sample: 24
Bitrate: 1478 kbps
Codec: FLAC
================================================================================

––––––––––––––––––––––––––––––––––––––––
Analyzed: The Plaster Caster Blues Band / The Plaster Caster Blues Band
––––––––––––––––––––––––––––––––––––––––

DR Peak RMS Duration Track
––––––––––––––––––––––––––––––––––––––––
DR14 -2.99 dB -21.16 dB 3:11 01-Lanoola Goes Limp
DR14 -2.36 dB -20.02 dB 2:42 03-Joint Venture
DR14 -2.39 dB -19.08 dB 2:16 04-You Didn't Try to Ball Me (For Frank Zappa)
DR13 -2.72 dB -18.63 dB 2:53 06-Welcome Hamptons Outstanding
DR12 -2.26 dB -17.81 dB 3:59 07-Plaster Caster
DR13 -2.85 dB -19.12 dB 2:59 08-Chicago Charva Chapter
DR14 -1.70 dB -20.20 dB 3:10 09-Cynthia's Blues
DR14 -2.55 dB -20.07 dB 3:12 11-Blues For Big Jimi
––––––––––––––––––––––––––––––––––––––––

Number of tracks: 8
Official DR value: DR14

Samplerate: 96000 Hz
Channels: 2
Bits per sample: 24
Bitrate: 2728 kbps
Codec: FLAC
================================================================================


Thanks to the Original customer.
SitemapZoids Wild English Subbed | Power Couple | Men Hoon Shahid Afridi Chap 120 | Eps13 Zorro season 4 | Black Torch