Dick Glass - The Glass Works (1967/2018) [Official Digital Download 24/192]

Posted By: Pisulik
Dick Glass - The Glass Works (1967/2018) [Official Digital Download 24/192]

Dick Glass - The Glass Works (1967/2018)
FLAC (tracks) 24-bit/192 kHz | Time - 39:26 minutes | 1,52 GB
Studio Master, Official Digital Download | Artwork: Front cover

Dick was a goodwill ambassador for Scientology. He recorded a couple of albums through Capitol that sort of did ok, his voice was tuneful, but no more than any other singer of the day. All in all, you would say he was unremarkable, but he wasn't. He lit up a room and it stayed bright after he left. You knew you had been in the presence of greatness.

Tracklist:

01. Happi-Dey
02. Love's My Favorite
03. Down On Your Knees
04. Tomorrow the Rising Sun
05. Little Willie
06. Rosie
07. Bed Rock Balladeer
08. Bad News
09. It's Love
10. House of the Rising Sun
11. What'd I Say

foobar2000 1.3.7 / Dynamic Range Meter 1.1.1
log date: 2018-07-03 17:27:55

––––––––––––––––––––––––––––––––––––––––
Analyzed: Dick Glass / The Glass Works
––––––––––––––––––––––––––––––––––––––––

DR Peak RMS Duration Track
––––––––––––––––––––––––––––––––––––––––
DR11 -0.15 dB -12.45 dB 2:42 01-Happi-Dey
DR15 -0.15 dB -16.98 dB 2:59 02-Love's My Favorite
DR11 -0.15 dB -13.41 dB 3:19 03-Down On Your Knees
DR12 -0.15 dB -14.26 dB 3:40 04-Tomorrow the Rising Sun
DR11 -0.15 dB -12.76 dB 4:21 05-Little Willie
DR11 -0.15 dB -13.76 dB 5:09 06-Rosie
DR13 -0.32 dB -16.36 dB 2:59 07-Bed Rock Balladeer
DR11 -0.15 dB -12.98 dB 2:42 08-Bad News
DR12 -0.15 dB -15.00 dB 3:10 09-It's Love
DR13 -0.15 dB -16.50 dB 4:34 10-House of the Rising Sun
DR12 -0.15 dB -13.72 dB 3:57 11-What'd I Say
––––––––––––––––––––––––––––––––––––––––

Number of tracks: 11
Official DR value: DR12

Samplerate: 192000 Hz
Channels: 2
Bits per sample: 24
Bitrate: 5590 kbps
Codec: FLAC
================================================================================


All thanks go to the original releaser
SitemapPumper Pups | Click here to see more of Kevin's predictions | Vedi Prodotto Crack for PhotoFiltre Studio X 10.13.1 | Scream 8.4 | janelldfw