Alain Bashung - Fantaisie Militaire (édition Super Deluxe) (1998/2014) [Official Digital Download]

Posted By: Pisulik
Alain Bashung - Fantaisie Militaire (édition Super Deluxe) (1998/2014) [Official Digital Download]

Alain Bashung - Fantaisie Militaire (édition Super Deluxe) (1998/2014)
FLAC (tracks) 24-bit/44.1 kHz | Time - 168:10 minutes | 1,9 GB
Studio Master, Official Digital Download | Artwork: Digital Booklet

Fantaisie Militaire (Military Fantasy) was Alain Bashung's last album of the '90s; it was also his most popular both critically and commercially. He received numerous awards for it, including album of the year and video of the year for the single "La Nuit de Mens" (At Night I Lie). Bashung surrounded himself with a slew of co-writers and musicians for the album, including Édith Fambuena and Jean-Louis Pierot of Les Valentins, Rodolphe Burger of Kat Onoma, Joseph Racaille, and Portishead guitarist Adrian Utley.

Tracklist:

CD1

01. Malaxe
02. La nuit je mens
03. Fantaisie militaire
04. 2043
05. Mes prisons
06. Ode à la vie
07. Dehors
08. Samuel Hall
09. Aucun express
10. Au pavillon des lauriers
11. Sommes-nous
12. Angora

foobar2000 1.3.7 / Dynamic Range Meter 1.1.1
log date: 2018-07-03 17:11:25

––––––––––––––––––––––––––––––––––––––––
Analyzed: Alain Bashung / Fantaisie Militaire (édition Super Deluxe)
––––––––––––––––––––––––––––––––––––––––

DR Peak RMS Duration Track
––––––––––––––––––––––––––––––––––––––––
DR7 0.00 dB -9.12 dB 4:33 01-Malaxe
DR7 0.00 dB -8.88 dB 4:25 02-La nuit je mens
DR7 0.00 dB -9.91 dB 4:48 03-Fantaisie militaire
DR8 0.00 dB -9.16 dB 3:47 04-2043
DR7 0.00 dB -9.74 dB 4:09 05-Mes prisons
DR6 0.00 dB -7.92 dB 4:18 06-Ode à la vie
DR7 0.00 dB -8.59 dB 3:31 07-Dehors
DR8 0.00 dB -9.95 dB 5:07 08-Samuel Hall
DR8 0.00 dB -9.65 dB 4:05 09-Aucun express
DR8 0.00 dB -9.40 dB 4:44 10-Au pavillon des lauriers
DR8 0.00 dB -9.07 dB 3:59 11-Sommes-nous
DR12 0.00 dB -13.60 dB 2:03 12-Angora
––––––––––––––––––––––––––––––––––––––––

Number of tracks: 12
Official DR value: DR8

Samplerate: 44100 Hz
Channels: 2
Bits per sample: 24
Bitrate: 1402 kbps
Codec: FLAC
================================================================================


CD 2

01. Malaxe (Pré-Production Les Valentins - Version 3)
02. Malaxe (Pré-Production Richard Mortier - Version 2)
03. Malaxe
04. La nuit je mens (Mise A Plat Version 1)
05. La nuit je mens (Mise A Plat Version 2)
06. Fantaisie militaire (Pré-Production Richard Mortier)
07. Fantaisie Militaire (Pré-Production Les Valentins)
08. 2043 (Pré-Production Les Valentins)
09. 2043 (Maquette Jean-Marc Ledermann)
10. Mes prisons (Pré-Production Les Valentins)
11. Mes prisons (Pré-Production Richard Mortier)
12. Ode à la vie (Version Alternative 1 - Maquette Jean-Marc Ledermann)
13. Ode à la vie (Version Alternative 4 - Instrumental - Maquette Jean-Marc Ledermann)
14. Ode A La Vie (Maquette Jean Lamoot)
15. Ode A La Vie (Remix)

foobar2000 1.3.7 / Dynamic Range Meter 1.1.1
log date: 2018-07-03 17:12:11

––––––––––––––––––––––––––––––––––––––––
Analyzed: Alain Bashung / Fantaisie Militaire (édition Super Deluxe)
––––––––––––––––––––––––––––––––––––––––

DR Peak RMS Duration Track
––––––––––––––––––––––––––––––––––––––––
DR7 0.00 dB -8.21 dB 4:46 01-Malaxe (Pré-Production Les Valentins Version 3)
DR7 0.00 dB -8.57 dB 4:41 02-Malaxe (Pré-Production Richard Mortier Version 2)
DR10 0.00 dB -11.58 dB 4:17 03-Malaxe
DR8 0.00 dB -9.80 dB 4:35 04-La nuit je mens (Mise A Plat Version 1)
DR6 0.00 dB -7.69 dB 4:42 05-La nuit je mens (Mise A Plat Version 2)
DR7 0.00 dB -7.68 dB 4:29 06-Fantaisie militaire (Pré-Production Richard Mortier)
DR6 0.00 dB -8.79 dB 4:14 07-Fantaisie Militaire (Pré-Production Les Valentins)
DR7 0.00 dB -7.92 dB 4:41 08-2043 (Pré-Production Les Valentins)
DR7 0.00 dB -8.38 dB 4:34 09-2043 (Maquette Jean-Marc Ledermann)
DR6 0.00 dB -7.62 dB 5:00 10-Mes prisons (Pré-Production Les Valentins)
DR6 0.00 dB -7.39 dB 3:47 11-Mes prisons (Pré-Production Richard Mortier)
DR7 0.00 dB -8.42 dB 4:39 12-Ode à la vie (Version Alternative 1 Maquette Jean-Marc Ledermann)
DR6 0.00 dB -7.40 dB 2:47 13-Ode à la vie (Version Alternative 4 Instrumental Maquette Jean-Marc Ledermann)
DR8 0.00 dB -10.08 dB 2:03 14-Ode A La Vie (Maquette Jean Lamoot)
DR6 0.00 dB -7.49 dB 4:36 15-Ode A La Vie (Remix)
––––––––––––––––––––––––––––––––––––––––

Number of tracks: 15
Official DR value: DR7

Samplerate: 44100 Hz
Channels: 2
Bits per sample: 24
Bitrate: 1720 kbps
Codec: FLAC
================================================================================


CD 3

01. Dehors (Pré-Production Les Valentins)
02. Dehors (Pré-Production Richard Mortier)
03. Samuel Hall (Remix)
04. Samuel Hall (Version Alternative De Rodolphe Burger)
05. Aucun express (Pré-Production Richard Mortier Version 2)
06. Aucun express (Pré-Production Les Valentins)
07. Au Pavillon Des Lauriers (Pré-Production Richard Mortier - Version 2)
08. Au pavillon des lauriers (Pré-Production Les Valentins)
09. Sommes-nous (Pré-Production Richard Mortier Version 1)
10. Sommes-Nous (Pré-Production Richard Mortier Version 2)
11. Sommes-nous (Version Alternative Instrumentale)
12. Angora Irréel
13. Angora (Maquette Claude Arini / Take 1)

foobar2000 1.3.7 / Dynamic Range Meter 1.1.1
log date: 2018-07-03 17:13:04

––––––––––––––––––––––––––––––––––––––––
Analyzed: Alain Bashung / Fantaisie Militaire (édition Super Deluxe)
––––––––––––––––––––––––––––––––––––––––

DR Peak RMS Duration Track
––––––––––––––––––––––––––––––––––––––––
DR6 0.00 dB -7.30 dB 3:54 01-Dehors (Pré-Production Les Valentins)
DR6 0.00 dB -7.46 dB 3:49 02-Dehors (Pré-Production Richard Mortier)
DR5 0.00 dB -6.69 dB 5:29 03-Samuel Hall (Remix)
DR7 0.00 dB -8.33 dB 4:25 04-Samuel Hall (Version Alternative De Rodolphe Burger)
DR7 0.00 dB -7.77 dB 4:01 05-Aucun express (Pré-Production Richard Mortier Version 2)
DR6 0.00 dB -7.25 dB 4:08 06-Aucun express (Pré-Production Les Valentins)
DR7 0.00 dB -7.73 dB 4:12 07-Au Pavillon Des Lauriers (Pré-Production Richard Mortier Version 2)
DR6 0.00 dB -7.79 dB 5:20 08-Au pavillon des lauriers (Pré-Production Les Valentins)
DR6 0.00 dB -7.48 dB 3:55 09-Sommes-nous (Pré-Production Richard Mortier Version 1)
DR6 0.00 dB -7.49 dB 4:23 10-Sommes-Nous (Pré-Production Richard Mortier Version 2)
DR11 0.00 dB -12.74 dB 4:39 11-Sommes-nous (Version Alternative Instrumentale)
DR7 0.00 dB -9.03 dB 6:12 12-Angora Irréel
DR8 0.00 dB -11.24 dB 2:11 13-Angora (Maquette Claude Arini Take 1)
––––––––––––––––––––––––––––––––––––––––

Number of tracks: 13
Official DR value: DR7

Samplerate: 44100 Hz
Channels: 2
Bits per sample: 24
Bitrate: 1395 kbps
Codec: FLAC
================================================================================


All thanks go to the original releaser
SitemapЭкшн | Greek Mythology and Religion | 艦これ太陽にほえろ! Tanaka-kun wa Itsumo Kedaruge | Makai Ouji: Devils and Realist English Subbed | Baixar toque para celular